BILL36
隐世仙人♂

[2024] [大陆] [剧情] [WEB-4K] 请和这样的我恋爱吧[第29-30集][国语配音/中文字幕].Men.In.love.S01.2024.2160p.WEB-DL.H265.HDR.DDP5.1-

-->

完整标题:请和这样的我恋爱吧[第29-30集][国语配音/中文字幕].Men.In.love.S01.2024.2160p.WEB-DL.H265.HDR.DDP5.1-LelveTV 6.90GB



◎标  题 请和这样的我恋爱吧
◎年  代 2024
◎产  地 中国大陆
◎类  别 剧情 / 爱情
◎语  言 汉语普通话
◎IMDb链接 https://www.imdb.com/title/tt28143565/
◎豆瓣链接 https://movie.douban.com/subject/35731684/
◎导  演 张博昱 Elson Chang
◎演  员 胡一天 Yitian Hu
      梁洁 Jie Liang
      代旭 Xu Dai
      刘畅 Chang Liu
      孙嘉灵 Jialing Sun
      吴芊盈 Qianying Wu
      李殿尊 Dianzun Li
      张瑶 Yao Zhang

◎简  介
    自律勤奋的杂志主编叶晗,机缘巧合下帮助笨拙可爱的体育老师李潇潇化解了一次又一次尴尬的危机,却因为过去的遭遇,难以迈出爱的脚步;热情直接的杂志出版人徐嘉成,遇见了曾经的模特一姐童伊雯,两人在对爱情与事业的追求中不断寻求着平衡;四人之间的关系因为潇潇暗恋嘉成变得复杂与充满考验,在兜兜转转中,叶晗守护着潇潇的暗恋与脆弱,潇潇彻底治愈了叶晗的情感创伤,嘉成与伊雯经过考验终修成正果。而其他几位朋友,也在经历人生的磨砺,沉稳踏实的律师许彦,专业能力出色,却始终不敢面对与年轻活力的徐嘉琳之间的感情;为人浪漫的餐吧老板路正与妻子郭晟林结婚多年,看似美好的婚姻里,却也有不为人知的苦恼。他们在经历了事业与感情的多重考验、分分合合后,最终收获了各自的幸福,也加深了彼此的羁绊。

部分资源为软字幕,移动端推荐播放器:MxPlayer,nPlayer,infuse ,其他播放器请自行尝试。

部分资源为软字幕,电脑端推荐播放器:PotPlayer,完美解码,KMPLAYER,其他播放器请自行尝试。

下载端推荐纯BT下载软件:qBittorrent,Bitcomet,uTorrent ,其他下载软件请自行尝试。不支持吸血迅雷。

##### MediaInfo ######
General
Unique ID : 44438059854425702376130231954033205035 (0x216E7581F7EBF5D757877A42FD2DDF2B)
Complete name : Men.In.love.S01E29.2024.2160p.WEB-DL.H265.HDR.DDP5.1-LelveTV.mkv
Duration : 44 min 7 s
Overall bit rate : 11.7 Mb/s

Video
ID : 1
Format : HEVC
Format/Info : High Efficiency Video Coding
Format profile : Main 10@L5@Main
HDR format : SMPTE ST 2086, HDR10 compatible
Codec ID : V_MPEGH/ISO/HEVC
Duration : 44 min 6 s
Bit rate : 11.2 Mb/s
Width : 3 840 pixels
Height : 1 608 pixels
Display aspect ratio : 2.40:1
Frame rate mode : Constant
Frame rate : 25.000 FPS
Color space : YUV
Chroma subsampling : 4:2:0
Bit depth : 10 bits
Bits/(Pixel*Frame) : 0.073
Stream size : 3.46 GiB (96%)
Language : Chinese
Default : Yes
Forced : No
Color range : Limited
Color primaries : BT.2020
Transfer characteristics : PQ
Matrix coefficients : BT.2020 non-constant
Mastering display color primaries : R: x=0.708000 y=0.292000, G: x=0.170000 y=0.797000, B: x=0.130000 y=0.046000, White point: x=0.312700 y=0.329000
Mastering display luminance : min: 0.0001 cd/m2, max: 1000 cd/m2
Maximum Content Light Level : 681 cd/m2
Maximum Frame-Average Light Level : 83 cd/m2

Audio #1
ID : 2
Format : AAC LC
Format/Info : Advanced Audio Codec Low Complexity
Codec ID : A_AAC-2
Duration : 44 min 7 s
Bit rate : 192 kb/s
Channel(s) : 2 channels
Channel layout : L R
Sampling rate : 44.1 kHz
Frame rate : 43.066 FPS (1024 SPF)
Compression mode : Lossy
Stream size : 60.6 MiB (2%)
Default : No
Forced : No

Audio #2
ID : 3
Format : E-AC-3
Format/Info : Enhanced AC-3
Commercial name : Dolby Digital Plus
Codec ID : A_EAC3
Duration : 44 min 6 s
Bit rate mode : Constant
Bit rate : 256 kb/s
Channel(s) : 6 channels
Channel layout : L R C LFE Ls Rs
Sampling rate : 48.0 kHz
Frame rate : 31.250 FPS (1536 SPF)
Compression mode : Lossy
Stream size : 80.8 MiB (2%)
Title : zh-ch [Dolby Digital Plus 5.1]
Language : Chinese
Service kind : Complete Main
Default : Yes
Forced : No




1 个附件 售价 大小 下载 时间

Men.In.love.S01.2024.2160p.WEB-DL.H265.HDR.DDP5.1-LelveTV[1LOU.ME].torrent 0 金币 19.88K 91 次 2天前

#1楼
发帖时间:2024-05-16 00:59:48   |   回复数:0
游客组