BILL36
隐世仙人♂

[2024] [大陆] [真人秀] [WEB-1080P] 这是我的岛[第01-04集][国语配音/中文字幕].This.Is.My.Island.S01.2024.1080p.WEB-DL.H264.AAC-Lelve

-->

完整标题:这是我的岛[第01-04集][国语配音/中文字幕].This.Is.My.Island.S01.2024.1080p.WEB-DL.H264.AAC-LelveTV 3.81GB



◎标  题 这是我的岛
◎年  代 2024
◎产  地 中国大陆
◎类  别 真人秀
◎语  言 汉语普通话
◎IMDb链接 https://www.imdb.com/title/tt31960947/
◎豆瓣链接 https://movie.douban.com/subject/36576648/
◎演  员 马嘉祺 Jiaqi Ma
      丁程鑫 Chengxin Ding
      宋亚轩 Yaxuan Song
      刘耀文 Yaowen Liu
      张真源 Zhenyuan Zhang
      严浩翔 Haoxiang Yan
      贺峻霖 Junlin He
      蔡国庆 Guoqing Cai
      欧豪 Oho Ou
      侯雯元 Wenyuan Hou
      杨迪 Di Yang

◎简  介
    荒岛探索成长秀《这是我的岛》,“流放”嘉宾极限挑战孤岛生存,从零开始荒岛开拓。

部分资源为软字幕,移动端推荐播放器:MxPlayer,nPlayer,infuse ,其他播放器请自行尝试。

部分资源为软字幕,电脑端推荐播放器:PotPlayer,完美解码,KMPLAYER,其他播放器请自行尝试。

下载端推荐纯BT下载软件:qBittorrent,Bitcomet,uTorrent ,其他下载软件请自行尝试。不支持吸血迅雷。

##### MediaInfo ######
General
Complete name : This.Is.My.Island.S01E01.2024.1080p.WEB-DL.H264.AAC-LelveTV.mp4
Duration : 1 h 29 min
Overall bit rate mode : Variable
Overall bit rate : 2 056 kb/s

Video
ID : 1
Format : AVC
Format/Info : Advanced Video Codec
Format profile : High@L5
Format settings : CABAC / 5 Ref Frames
Format settings, CABAC : Yes
Format settings, Reference frames : 5 frames
Codec ID : avc1
Codec ID/Info : Advanced Video Coding
Duration : 1 h 29 min
Bit rate : 1 953 kb/s
Width : 1 920 pixels
Height : 1 080 pixels
Display aspect ratio : 16:9
Frame rate mode : Constant
Frame rate : 25.000 FPS
Color space : YUV
Chroma subsampling : 4:2:0
Bit depth : 8 bits
Scan type : Progressive
Bits/(Pixel*Frame) : 0.038
Stream size : 1.22 GiB (95%)
Color range : Limited
Color primaries : BT.709
Transfer characteristics : BT.709
Matrix coefficients : BT.709
Codec configuration box : avcC

Audio
ID : 2
Format : AAC LC
Format/Info : Advanced Audio Codec Low Complexity
Codec ID : mp4a-40-2
Duration : 1 h 29 min
Bit rate mode : Variable
Bit rate : 96.0 kb/s
Maximum bit rate : 99.5 kb/s
Channel(s) : 2 channels
Channel layout : L R
Sampling rate : 44.1 kHz
Frame rate : 43.066 FPS (1024 SPF)
Compression mode : Lossy
Stream size : 61.3 MiB (5%)
Default : Yes
Alternate group : 1




1 个附件 售价 大小 下载 时间

This.Is.My.Island.S01.2024.1080p.WEB-DL.H264.AAC-LelveTV[1LOU.ME].torrent 0 金币 12.24K 210 次 1月前

#1楼
发帖时间:2024-04-19 20:58:54   |   回复数:0
游客组