BILL36
隐世仙人♂

[2024] [大陆] [真人秀] [WEB-4K] 种地吧2[第17集][国语配音/中文字幕].Become.a.Farmer.S02.2024.2160p.WEB-DL.H265.AAC-LelveTV 2.9

-->

完整标题:种地吧2[第17集][国语配音/中文字幕].Become.a.Farmer.S02.2024.2160p.WEB-DL.H265.AAC-LelveTV 2.95GB



◎标  题 种地吧2
◎译  名 种地吧 第二季
◎年  代 2024
◎产  地 中国大陆
◎类  别 真人秀
◎语  言 汉语普通话
◎IMDb链接 https://www.imdb.com/title//
◎豆瓣链接 https://movie.douban.com/subject/36571420/
◎演  员 蒋敦豪 Dunhao Jiang
      鹭卓 Zhuo Lu
      李耕耘 Gengyun Li
      李昊 Hao Li
      赵一博 Yibo Zhao
      卓沅 Yuan Zhuo
      赵小童 Xiaotong Zhao
      何浩楠 Haonan He
      陈少熙 Shaoxi Chen
      王一珩 Yiheng Wang

◎简  介
    做大做强,重回田园,继续投身新农业,再续新农人生。

部分资源为软字幕,移动端推荐播放器:MxPlayer,nPlayer,infuse ,其他播放器请自行尝试。

部分资源为软字幕,电脑端推荐播放器:PotPlayer,完美解码,KMPLAYER,其他播放器请自行尝试。

下载端推荐纯BT下载软件:qBittorrent,Bitcomet,uTorrent ,其他下载软件请自行尝试。不支持吸血迅雷。

##### MediaInfo ######
General
Unique ID : 63107731235875034108255517360717764060 (0x2F7A1B5FD3AAF2EDCBAEA5E2C1F715DC)
Complete name : Become.a.Farmer.S02E17.2024.2160p.WEB-DL.H265.AAC-LelveTV.mkv
Duration : 1 h 38 min
Overall bit rate : 4 277 kb/s

Video
ID : 1
Format : HEVC
Format/Info : High Efficiency Video Coding
Format profile : Main@L5@Main
Codec ID : V_MPEGH/ISO/HEVC
Duration : 1 h 38 min
Bit rate : 4 085 kb/s
Width : 3 840 pixels
Height : 2 160 pixels
Display aspect ratio : 16:9
Frame rate mode : Constant
Frame rate : 25.000 FPS
Color space : YUV
Chroma subsampling : 4:2:0
Bit depth : 8 bits
Bits/(Pixel*Frame) : 0.020
Stream size : 2.82 GiB (96%)
Language : Chinese
Default : Yes
Forced : No

Audio
ID : 2
Format : AAC LC
Format/Info : Advanced Audio Codec Low Complexity
Codec ID : A_AAC-2
Duration : 1 h 38 min
Bit rate : 192 kb/s
Channel(s) : 2 channels
Channel layout : L R
Sampling rate : 44.1 kHz
Frame rate : 43.066 FPS (1024 SPF)
Compression mode : Lossy
Stream size : 134 MiB (4%)
Default : No
Forced : No




1 个附件 售价 大小 下载 时间

Become.a.Farmer.S02.2024.2160p.WEB-DL.H265.AAC-LelveTV[1LOU.ME].torrent 0 金币 9.80K 112 次 1月前

#1楼
发帖时间:2024-04-19 20:48:09   |   回复数:0
游客组