Asuka601
隐世仙人♂

[2014] [台湾] [其它] [BD-1080P] 光阴的故事-台湾新电影[简繁英字幕].Flowers.of.Taipei.Taiwan.New.Cinema.2014.1080p.BluRay.x264.DT

-->

完整标题:光阴的故事-台湾新电影[简繁英字幕].Flowers.of.Taipei.Taiwan.New.Cinema.2014.1080p.BluRay.x264.DTS-SONYHD 8.89GB



◎标  题 光阴的故事-台湾新电影
◎译  名 Flowers of Taipei - Taiwan New Cinema
◎片  名 光陰的故事-台灣新電影
◎年  代 2014
◎产  地 中国台湾
◎类  别 纪录片
◎语  言 汉语普通话 / 法语 / 英语 / 泰语 / 意大利语 / 西班牙语
◎上映日期 2014-09-03(威尼斯电影节)
◎IMDb评分 6.9/10 (209人评价)
◎IMDb链接 https://www.imdb.com/title/tt4510892/
◎豆瓣评分 6.8/10 (1397人评价)
◎豆瓣链接 https://movie.douban.com/subject/25957243/
◎片  长 110分钟
◎导  演 谢庆铃 Chinlin Hsieh
◎演  员 艾未未 Weiwei Ai
      侯孝贤 Hsiao-hsien Hou
      贾樟柯 Zhangke Jia
      黑泽清 Kiyoshi Kurosawa
      浅野忠信 Tadanobu Asano
      奥利维耶·阿萨亚斯 Olivier Assayas
      是枝裕和 Hirokazu Koreeda
      马可·穆勒 Marco Mueller
      蔡明亮 Ming-liang Tsai
      阿彼察邦·韦拉斯哈古 Apichatpong Weerasethakul
      鲍鲸鲸 Jingjing Bao
      王兵 Bing Wang
      杨超 Chao Yang
      让-米歇尔·傅东 Jean-Michel Frodon
      市山尚三 Shozo Ichiyama
      刘小东 Xiaodong Liu
      汤尼·雷恩 Tony Rayns
      马丁·赫特曼 Martín Rejtman
      皮埃尔·里斯安 Pierre Rissient
      佐藤忠男 Tadao Sato
      田壮壮 Zhuangzhuang Tian
      应亮 Liang Ying
      林怀民 Hwai-min Lin
      贾思敏·洛佩斯 Jazmín López
      杰拉多·瑙曼 Gerardo Naumann
      罗维明 Wai-Ming Lau

◎简  介
    臺灣新電影三十週年之際,導演谢慶鈴從台北飛往清邁、巴黎、東京、香港、北京、鹿特丹甚至布宜諾斯艾利斯,背景完全不同的導演、影評、藝術家们,娓娓道來臺灣新電影與他們的關係,那麼远、那麼近。

##### MediaInfo ######
General
Unique ID : 205138024378312177890489688796790242725 (0x9A542579B38231051B1EE8756573BDA5)
Complete name : Flowers.of.Taipei.Taiwan.New.Cinema.2014.1080p.BluRay.x264.DTS-SONYHD.mkv
Duration : 1 h 49 min
Overall bit rate : 11.7 Mb/s

Video
ID : 1
Format : AVC
Format/Info : Advanced Video Codec
Format profile : [email protected]
Format settings : CABAC / 4 Ref Frames
Format settings, CABAC : Yes
Format settings, Reference frames : 4 frames
Codec ID : V_MPEG4/ISO/AVC
Duration : 1 h 49 min
Bit rate : 10.1 Mb/s
Width : 1 920 pixels
Height : 1 080 pixels
Display aspect ratio : 16:9
Frame rate mode : Constant
Frame rate : 24.000 FPS
Color space : YUV
Chroma subsampling : 4:2:0
Bit depth : 8 bits
Scan type : Progressive
Bits/(Pixel*Frame) : 0.203
Stream size : 7.72 GiB (87%)
Writing library : x264 core 164 r3099+55M 141af3f t_mod_New [(8 & 10)-bit@all X86_64]
Encoding settings : cabac=1 / ref=4 / deblock=1:-3:-3 / analyse=0x3:0x133 / me=umh / subme=11 / psy=1 / fade_compensate=0.00 / psy_rd=1.00:0.00 / mixed_ref=1 / me_range=48 / chroma_me=1 / trellis=2 / 8x8dct=1 / cqm=0 / deadzone=21,11 / fast_pskip=0 / chroma_qp_offset=-3 / threads=24 / lookahead_threads=6 / sliced_threads=0 / nr=0 / decimate=0 / interlaced=0 / bluray_compat=0 / constrained_intra=0 / fgo=0 / bframes=11 / b_pyramid=2 / b_adapt=2 / b_bias=0 / direct=3 / weightb=1 / open_gop=0 / weightp=2 / keyint=240 / keyint_min=1 / scenecut=40 / intra_refresh=0 / rc_lookahead=72 / rc=crf / mbtree=0 / crf=18.5000 / qcomp=0.60 / qpmin=0:0:0 / qpmax=69:69:69 / qpstep=4 / vbv_maxrate=62500 / vbv_bufsize=78125 / crf_max=0.0 / nal_hrd=none / filler=0 / ip_ratio=1.40 / pb_ratio=1.30 / aq=3:0.80 / aq-sensitivity=10.00 / aq-factor=1.00:1.00:1.00 / aq2=0 / aq3=0
Default : Yes
Forced : No

Audio
ID : 2
ID in the original source medium : 4352 (0x1100)
Format : DTS
Format/Info : Digital Theater Systems
Codec ID : A_DTS
Duration : 1 h 49 min
Bit rate mode : Constant
Bit rate : 1 509 kb/s
Channel(s) : 6 channels
Channel layout : C L R Ls Rs LFE
Sampling rate : 48.0 kHz
Frame rate : 93.750 FPS (512 SPF)
Bit depth : 24 bits
Compression mode : Lossy
Stream size : 1.15 GiB (13%)
Language : English
Default : Yes
Forced : No
Original source medium : Blu-ray

Text #1
ID : 3
Format : PGS
Muxing mode : zlib
Codec ID : S_HDMV/PGS
Codec ID/Info : Picture based subtitle format used on BDs/HD-DVDs
Duration : 1 h 45 min
Bit rate : 21.4 kb/s
Frame rate : 0.243 FPS
Count of elements : 1543
Stream size : 16.2 MiB (0%)
Title : chs
Language : Chinese
Default : Yes
Forced : No

Text #2
ID : 4
ID in the original source medium : 4610 (0x1202)
Format : PGS
Muxing mode : zlib
Codec ID : S_HDMV/PGS
Codec ID/Info : Picture based subtitle format used on BDs/HD-DVDs
Duration : 1 h 45 min
Bit rate : 21.5 kb/s
Frame rate : 0.243 FPS
Count of elements : 1543
Stream size : 16.3 MiB (0%)
Title : cht
Language : Chinese
Default : No
Forced : No
Original source medium : Blu-ray

Text #3
ID : 5
ID in the original source medium : 4611 (0x1203)
Format : PGS
Muxing mode : zlib
Codec ID : S_HDMV/PGS
Codec ID/Info : Picture based subtitle format used on BDs/HD-DVDs
Duration : 1 h 45 min
Bit rate : 17.0 kb/s
Frame rate : 0.228 FPS
Count of elements : 1452
Stream size : 12.9 MiB (0%)
Title : eng
Language : English
Default : No
Forced : No
Original source medium : Blu-ray

Menu
00:00:00.000 : en:Chapter 01
00:09:29.458 : en:Chapter 02
00:19:29.416 : en:Chapter 03
00:27:25.750 : en:Chapter 04
00:35:47.000 : en:Chapter 05
00:44:58.000 : en:Chapter 06
00:54:11.416 : en:Chapter 07
01:04:28.541 : en:Chapter 08
01:11:48.208 : en:Chapter 09
01:20:35.833 : en:Chapter 10
01:29:24.291 : en:Chapter 11
01:38:05.875 : en:Chapter 12


部分资源为软字幕,移动端推荐播放器:MxPlayer,nPlayer,infuse ,其他播放器请自行尝试。

部分资源为软字幕,电脑端推荐播放器:PotPlayer,完美解码,KMPLAYER,其他播放器请自行尝试。



1 个附件 售价 大小 下载 时间

Flowers.of.Taipei.Taiwan.New.Cinema.2014.1080p.BluRay.x264.DTS-SONYHD[1LOU.ME].torrent 0 金币 25.36K 1680 次 1月前

#1楼
发帖时间:2024-02-26 21:11:05   |   回复数:0
游客组