Asuka601
隐世仙人♂

[2016] [欧美] [动作] [BD-1080P] 第五波[中文字幕].The.5th.Wave.2016.BluRay.REMUX.1080p.AVC.DTS-HD.MA5.1-DreamHD 22.84GB

-->

完整标题:第五波[中文字幕].The.5th.Wave.2016.BluRay.REMUX.1080p.AVC.DTS-HD.MA5.1-DreamHD 22.84GB



◎标  题 第五波
◎译  名 第五毁灭(台) / 第五天劫(港) / The Fifth Wave
◎片  名 The 5th Wave
◎年  代 2016
◎产  地 美国
◎类  别 动作 / 科幻 / 惊悚 / 冒险
◎语  言 英语
◎上映日期 2016-01-14(澳大利亚) / 2016-01-22(美国)
◎IMDb评分 5.2/10 (113581人评价)
◎IMDb链接 https://www.imdb.com/title/tt2304933/
◎豆瓣评分 4.9/10 (15988人评价)
◎豆瓣链接 https://movie.douban.com/subject/25866686/
◎片  长 112分钟
◎导  演 J·布莱克森 J Blakeson
◎编  剧 苏珊娜·格兰特 Susannah Grant
      阿齐瓦·高斯曼 Akiva Goldsman
      杰夫·皮克纳 Jeff Pinkner
      瑞克·杨西 Rick Yancey
◎演  员 科洛·莫瑞兹 Chloë Grace Moretz
      尼克·罗宾森 Nick Robinson
      朗·里维斯顿 Ron Livingston
      玛姬·丝弗 Maggie Siff
      亚历克斯·罗伊 Alex Roe
      玛丽亚·贝罗 Maria Bello
      麦卡·梦露 Maika Monroe
      列维·施瑞博尔 Liev Schreiber
      扎克瑞·亚瑟 Zackary Arthur
      托尼·雷沃罗利 Tony Revolori
      特丽莎·贝特曼 Talitha Bateman
      纳吉·杰特 Nadji Jeter
      琳赛·伊丽莎白 Lindsey Elizabeth
      马克·约翰·杰弗瑞 Marc John Jefferies
      查明·李 Charmin Lee
      加芙列拉·洛佩兹 Gabriela Lopez
      迈克尔·比斯利 Michael Beasley
      玛丽·特劳特曼 Mary Troutman

◎简  介
    某日,人类赖以生存的家园地球遭到了外星人的猛烈袭击,现代设施和发达科技均遭受到了毁灭性的打击,人类文明仿佛一下子退回了石器时代。凯西(科洛·格蕾斯·莫瑞兹 Chloe Grace Moretz 饰)和弟弟山姆(扎克瑞·亚瑟 Zackary Arthur 饰)在灾难之中失去了母亲,姐弟两人顾不上悲伤,跟随着父亲奥利弗(朗·里维斯顿 Ron Livingston 饰)来到难民营避难。   沃斯上校(列维·施瑞博尔 Liev Schreiber 饰)带领着军队来到了难民营,他们带走了孩子们,并且声称之后会回来接遗留下来的成年人,凯西和山姆依依不舍的离开了父亲。山姆心爱的泰迪熊落在了难民营,凯西返回寻找,哪知道外星人拥有了能够寄宿在人类体内的能力,导致难民营中发生了动乱。混乱之中,凯西和山姆失散了,为了寻找弟弟,凯西毅然踏上了充满了危险的旅途。

##### MediaInfo ######
General
Unique ID : 168872409968359676207289818890183667715 (0x7F0BA4A31CA5C61A1DBD1DDD3DF47003)
Complete name : The.5th.Wave.2016.BluRay.REMUX.1080p.AVC.DTS-HD.MA5.1-DreamHD.mkv
Duration : 1 h 52 min
Overall bit rate mode : Variable
Overall bit rate : 29.1 Mb/s

Video
ID : 1
ID in the original source medium : 4113 (0x1011)
Format : AVC
Format/Info : Advanced Video Codec
Format profile : [email protected]
Format settings : CABAC / 2 Ref Frames
Format settings, CABAC : Yes
Format settings, Reference frames : 2 frames
Format settings, GOP : M=1, N=10
Codec ID : V_MPEG4/ISO/AVC
Duration : 1 h 52 min
Bit rate mode : Variable
Bit rate : 26.8 Mb/s
Width : 1 920 pixels
Height : 1 080 pixels
Display aspect ratio : 16:9
Frame rate mode : Constant
Frame rate : 23.976 (24000/1001) FPS
Color space : YUV
Chroma subsampling : 4:2:0
Bit depth : 8 bits
Scan type : Progressive
Bits/(Pixel*Frame) : 0.540
Stream size : 21.1 GiB (92%)
Default : Yes
Forced : No
Original source medium : Blu-ray

Audio
ID : 2
ID in the original source medium : 4352 (0x1100)
Format : DTS XLL
Format/Info : Digital Theater Systems
Commercial name : DTS-HD Master Audio
Codec ID : A_DTS
Duration : 1 h 52 min
Bit rate mode : Variable
Bit rate : 2 190 kb/s
Channel(s) : 6 channels
Channel layout : C L R Ls Rs LFE
Sampling rate : 48.0 kHz
Frame rate : 93.750 FPS (512 SPF)
Bit depth : 16 bits
Compression mode : Lossless
Stream size : 1.72 GiB (8%)
Language : English
Default : Yes
Forced : No
Original source medium : Blu-ray

Text #1
ID : 3
ID in the original source medium : 4608 (0x1200)
Format : PGS
Muxing mode : zlib
Codec ID : S_HDMV/PGS
Codec ID/Info : Picture based subtitle format used on BDs/HD-DVDs
Duration : 1 h 44 min
Bit rate : 28.4 kb/s
Frame rate : 0.393 FPS
Count of elements : 2452
Stream size : 21.1 MiB (0%)
Language : English
Default : Yes
Forced : No
Original source medium : Blu-ray

Text #2
ID : 4
ID in the original source medium : 4628 (0x1214)
Format : PGS
Muxing mode : zlib
Codec ID : S_HDMV/PGS
Codec ID/Info : Picture based subtitle format used on BDs/HD-DVDs
Duration : 1 h 48 min
Bit rate : 34.3 kb/s
Frame rate : 0.405 FPS
Count of elements : 2631
Stream size : 26.6 MiB (0%)
Language : Chinese
Default : Yes
Forced : No
Original source medium : Blu-ray

Text #3
ID : 5
ID in the original source medium : 4629 (0x1215)
Format : PGS
Muxing mode : zlib
Codec ID : S_HDMV/PGS
Codec ID/Info : Picture based subtitle format used on BDs/HD-DVDs
Duration : 1 h 48 min
Bit rate : 20.6 kb/s
Frame rate : 0.405 FPS
Count of elements : 2631
Stream size : 15.9 MiB (0%)
Language : Chinese
Default : Yes
Forced : No
Original source medium : Blu-ray

Text #4
ID : 6
ID in the original source medium : 4630 (0x1216)
Format : PGS
Muxing mode : zlib
Codec ID : S_HDMV/PGS
Codec ID/Info : Picture based subtitle format used on BDs/HD-DVDs
Duration : 1 h 48 min
Bit rate : 37.4 kb/s
Frame rate : 0.405 FPS
Count of elements : 2631
Stream size : 28.9 MiB (0%)
Language : Chinese
Default : Yes
Forced : No
Original source medium : Blu-ray

Text #5
ID : 7
ID in the original source medium : 4631 (0x1217)
Format : PGS
Muxing mode : zlib
Codec ID : S_HDMV/PGS
Codec ID/Info : Picture based subtitle format used on BDs/HD-DVDs
Duration : 1 h 48 min
Bit rate : 23.6 kb/s
Frame rate : 0.405 FPS
Count of elements : 2631
Stream size : 18.3 MiB (0%)
Language : Chinese
Default : Yes
Forced : No
Original source medium : Blu-ray

Menu
00:00:00.000 : en:Chapter 01
00:03:48.561 : en:Chapter 02
00:09:05.836 : en:Chapter 03
00:16:01.335 : en:Chapter 04
00:20:46.036 : en:Chapter 05
00:28:43.430 : en:Chapter 06
00:37:41.968 : en:Chapter 07
00:45:50.956 : en:Chapter 08
00:54:19.714 : en:Chapter 09
00:59:47.709 : en:Chapter 10
01:06:01.749 : en:Chapter 11
01:13:06.131 : en:Chapter 12
01:18:13.230 : en:Chapter 13
01:25:02.263 : en:Chapter 14
01:32:21.160 : en:Chapter 15
01:43:07.431 : en:Chapter 16


部分资源为软字幕,移动端推荐播放器:MxPlayer,nPlayer,infuse ,其他播放器请自行尝试。

部分资源为软字幕,电脑端推荐播放器:PotPlayer,完美解码,KMPLAYER,其他播放器请自行尝试。



1 个附件 售价 大小 下载 时间

The.5th.Wave.2016.BluRay.REMUX.1080p.AVC.DTS-HD.MA5.1-DreamHD[1LOU.ME].torrent 0 金币 60.18K 1918 次 1月前

#1楼
发帖时间:2024-02-26 14:42:05   |   回复数:1
feung18
武林盟主
感謝樓主辛苦 !
1月前 #2楼
游客组