Asuka601
隐世仙人♂

[2012] [其它] [其它] [WEB-1080P] BBC 地平线 宇宙何其小[中文字幕].How.Small.Is.the.Universe.2012.1080p.WEB-DL.H264.AAC-SONYHD

-->

完整标题:BBC 地平线 宇宙何其小[中文字幕].How.Small.Is.the.Universe.2012.1080p.WEB-DL.H264.AAC-SONYHD 0.92GB



◎标  题 BBC 地平线: 宇宙何其小
◎译  名 BBC Horizon 2012-2013 Episode 5 of 6
◎片  名 Horizon: How Small Is the Universe?
◎年  代 2012
◎产  地 英国
◎类  别 纪录片
◎语  言 英语
◎上映日期 2012-09-03(英国)
◎IMDb评分 7.7/10 (58人评价)
◎IMDb链接 https://www.imdb.com/title/tt2386894/
◎豆瓣评分 8.2/10 (285人评价)
◎豆瓣链接 https://movie.douban.com/subject/21323332/
◎片  长 59分钟
◎导  演 托比·麦克唐纳 Toby MacDonald
◎演  员 约翰·汉纳 John Hannah

◎简  介
    Horizon plunges down the biggest rabbit-hole in history in search of the smallest thing in the Universe.   It is a journey where things don't just become smaller but also a whole lot weirder. Scientists hope to catch a glimpse of miniature black holes, multiple dimensions and even parallel Universes. As they start to explore this wonderland, where nothing is quite what it seems, they may have to rewrite the fundamental laws of time and space.

##### MediaInfo ######
General
Complete name : How.Small.Is.the.Universe.2012.1080p.WEB-DL.H264.AAC-SONYHD.mp4
Duration : 51 min 58 s
Overall bit rate : 2 520 kb/s

Video
ID : 1
Format : AVC
Format/Info : Advanced Video Codec
Format profile : High@L5
Format settings : CABAC / 6 Ref Frames
Format settings, CABAC : Yes
Format settings, Reference frames : 6 frames
Codec ID : avc1
Codec ID/Info : Advanced Video Coding
Duration : 51 min 58 s
Bit rate : 2 321 kb/s
Width : 1 920 pixels
Height : 1 080 pixels
Display aspect ratio : 16:9
Frame rate mode : Variable
Frame rate : 25.026 FPS
Minimum frame rate : 25.000 FPS
Maximum frame rate : 25.641 FPS
Color space : YUV
Chroma subsampling : 4:2:0
Bit depth : 8 bits
Scan type : Progressive
Bits/(Pixel*Frame) : 0.045
Stream size : 863 MiB (92%)
Color range : Limited
Color primaries : BT.709
Transfer characteristics : BT.709
Matrix coefficients : BT.709
Codec configuration box : avcC

Audio
ID : 2
Format : AAC LC
Format/Info : Advanced Audio Codec Low Complexity
Codec ID : mp4a-40-2
Duration : 51 min 58 s
Bit rate mode : Constant
Bit rate : 192 kb/s
Channel(s) : 2 channels
Channel layout : L R
Sampling rate : 48.0 kHz
Frame rate : 46.875 FPS (1024 SPF)
Compression mode : Lossy
Stream size : 71.4 MiB (8%)
Default : Yes
Alternate group : 1


部分资源为软字幕,移动端推荐播放器:MxPlayer,nPlayer,infuse ,其他播放器请自行尝试。

部分资源为软字幕,电脑端推荐播放器:PotPlayer,完美解码,KMPLAYER,其他播放器请自行尝试。



1 个附件 售价 大小 下载 时间

How.Small.Is.the.Universe.2012.1080p.WEB-DL.H264.AAC-SONYHD[1LOU.ME].torrent 0 金币 5.39K 2009 次 1月前

#1楼
发帖时间:2024-02-26 14:31:50   |   回复数:0
游客组