Asuka601
隐世仙人♂

[更 早] [印度] [剧情] [BD-1080P] 大树之歌[中文字幕].Apur.Sansar.1959.BluRay.1080p.AAC1.0.x264-DreamHD 3.10GB

-->

完整标题:大树之歌[中文字幕].Apur.Sansar.1959.BluRay.1080p.AAC1.0.x264-DreamHD 3.10GB



◎标  题 大树之歌
◎译  名 阿塔的世界 / 阿菩的世界 / 阿普的世界 / Apur Sansar / The World of Apu
◎片  名 অপুর সংসার
◎年  代 1959
◎产  地 印度
◎类  别 剧情
◎语  言 孟加拉语
◎上映日期 1959-05-01
◎IMDb评分 8.5/10 (16195人评价)
◎IMDb链接 https://www.imdb.com/title/tt0052572/
◎豆瓣评分 8.7/10 (5014人评价)
◎豆瓣链接 https://movie.douban.com/subject/1295720/
◎片  长 105 分钟
◎导  演 萨蒂亚吉特·雷伊 Satyajit Ray
◎编  剧 萨蒂亚吉特·雷伊 Satyajit Ray
◎演  员 松米特拉·查特吉 Soumitra Chatterjee
      莎米拉·泰戈尔 Sharmila Tagore
      阿洛克·查克拉瓦蒂 Alok Chakravarty
      斯瓦潘·慕克吉 Swapan Mukherjee

◎简  介
    本片是阿普三部曲(大路之歌、不屈者、阿普的世界),第一部是与生长的地方的联系,第二部是与父母的联系(在第二部里,阿普的父母相继弃他而去),第三部是与爱人和孩子的联系。全片最突出的地方,是以一位不满十岁的少年的视线界来观赏人类与大自然生活的共通性。   “阿普三部曲”奠定了萨雅吉雷在印度电影发展史上崇高艺术地位。 萨雅吉雷的电影是很难定位他的电影类别及风格。但可确定的是他的电影是印度传世经典之作,具有文学艺术价值,他具有普世价值的电影故事,永远深值人心。   日本名导演黑泽明(Akira Kurosawa)对.萨雅吉雷有极中肯的评价:如果我们泠静深沈的观察,了解人类对爱的演进,在萨雅吉雷的电影中你必有所感动和共呜,.萨雅吉雷电影是电影工业的指标。   印度电影大师萨蒂亚吉特·雷伊的《阿普三部曲》,曾荣获戛纳电影节最佳人文纪录片奖。三部电影每一部都自成佳作,它们以朴素、强烈的感情和视觉上的独特美感给人以心灵上的震撼,从而确立了Ray在世界顶尖导演中的地位。

点击图片可查看大图

软字幕无法在截图上展现,HDR版本/杜比视界版本截图会出现颜色异常,请使用支持的设备播放!

##### MediaInfo ######
General
Complete name : Apur.Sansar.1959.BluRay.1080p.iPad.AAC1.0.x264-DreamHD.mp4
Duration : 1 h 46 min
Overall bit rate : 4 168 kb/s

Video
ID : 1
Format : AVC
Format/Info : Advanced Video Codec
Format profile : [email protected]
Format settings : 5 Ref Frames
Format settings, CABAC : No
Format settings, Reference frames : 5 frames
Codec ID : avc1
Codec ID/Info : Advanced Video Coding
Duration : 1 h 46 min
Bit rate : 4 000 kb/s
Width : 1 920 pixels
Height : 1 080 pixels
Display aspect ratio : 16:9
Frame rate mode : Variable
Frame rate : 23.976 (24000/1001) FPS
Minimum frame rate : 23.974 FPS
Maximum frame rate : 23.981 FPS
Color space : YUV
Chroma subsampling : 4:2:0
Bit depth : 8 bits
Scan type : Progressive
Bits/(Pixel*Frame) : 0.080
Stream size : 2.97 GiB (96%)
Writing library : x264 core 164 r3100 ed0f7a6
Encoding settings : cabac=0 / ref=5 / deblock=0:0:0 / analyse=0x1:0x111 / me=hex / subme=8 / psy=1 / psy_rd=1.00:0.00 / mixed_ref=1 / me_range=16 / chroma_me=1 / trellis=2 / 8x8dct=0 / cqm=0 / deadzone=21,11 / fast_pskip=1 / chroma_qp_offset=-2 / threads=24 / lookahead_threads=4 / sliced_threads=0 / nr=0 / decimate=1 / interlaced=0 / bluray_compat=0 / constrained_intra=0 / bframes=3 / b_pyramid=2 / b_adapt=1 / b_bias=0 / direct=3 / weightb=0 / open_gop=0 / weightp=0 / keyint=240 / keyint_min=24 / scenecut=40 / intra_refresh=0 / rc_lookahead=50 / rc=2pass / mbtree=1 / bitrate=4000 / ratetol=1.0 / qcomp=0.60 / qpmin=0 / qpmax=69 / qpstep=4 / cplxblur=20.0 / qblur=0.5 / vbv_maxrate=800000 / vbv_bufsize=800000 / nal_hrd=none / filler=0 / ip_ratio=1.40 / aq=1:1.00
Encoded date : UTC 2024-02-24 11:56:06
Tagged date : UTC 2024-02-24 11:56:06
Color range : Limited
Color primaries : BT.709
Transfer characteristics : BT.709
Matrix coefficients : BT.709
Menus : 3
mdhd_Duration : 6377329
Codec configuration box : avcC

Audio
ID : 2
Format : AAC LC
Format/Info : Advanced Audio Codec Low Complexity
Codec ID : mp4a-40-2
Duration : 1 h 46 min
Source duration : 1 h 46 min
Bit rate mode : Constant
Bit rate : 161 kb/s
Channel(s) : 1 channel
Channel layout : C
Sampling rate : 48.0 kHz
Frame rate : 46.875 FPS (1024 SPF)
Compression mode : Lossy
Stream size : 123 MiB (4%)
Source stream size : 123 MiB (4%)
Title : Mono
Language : Bengali
Default : Yes
Alternate group : 1
Encoded date : UTC 2024-02-24 11:56:06
Tagged date : UTC 2024-02-24 11:56:06
Menus : 3

Menu
ID : 3
Format : Timed Text
Codec ID : text
Duration : 1 h 46 min
Language : English
Encoded date : UTC 2024-02-24 11:56:06
Tagged date : UTC 2024-02-24 11:56:06
Bit rate mode : CBR
Menu For : 1,2
00:00:00.000 : 第 01 章
00:03:46.852 : 第 02 章
00:08:17.706 : 第 03 章
00:14:36.834 : 第 04 章
00:20:28.978 : 第 05 章
00:25:27.860 : 第 06 章
00:28:55.776 : 第 07 章
00:35:26.916 : 第 08 章
00:38:30.809 : 第 09 章
00:43:35.071 : 第 10 章
00:49:14.827 : 第 11 章
00:56:35.142 : 第 12 章
01:02:27.244 : 第 13 章
01:04:05.175 : 第 14 章
01:11:58.064 : 第 15 章
01:15:57.136 : 第 16 章
01:21:03.776 : 第 17 章
01:25:41.345 : 第 18 章
01:33:57.132 : 第 19 章
01:41:16.362 : 第 20 章
Bit rate mode : Constant


部分资源为软字幕,移动端推荐播放器:MxPlayer,nPlayer,infuse ,其他播放器请自行尝试。

部分资源为软字幕,电脑端推荐播放器:PotPlayer,完美解码,KMPLAYER,其他播放器请自行尝试。



1 个附件 售价 大小 下载 时间

Apur.Sansar.1959.BluRay.1080p.AAC1.0.x264-DreamHD[1LOU.ME].torrent 0 金币 10.89K 980 次 1月前

#1楼
发帖时间:2024-02-26 13:34:28   |   回复数:0
游客组