travismk
一代宗师

[更 早] [欧美] [喜剧] [BD-1080P] 中途客栈 The.Halfway.House.2004.1080p.BluRay.x264.AAC2.0-PTP 5.53GB

-->

帖子完整标题:中途客栈 The.Halfway.House.2004.1080p.BluRay.x264.AAC2.0-PTP 5.53GB



◎译  名 中途客栈
◎片  名 The Halfway House
◎年  代 2004
◎产  地 美国
◎类  别 喜剧 / 恐怖
◎语  言 英语
◎上映日期 2005-08-23
◎豆瓣评分 4.0/10 from 71 users
◎豆瓣链接 https://movie.douban.com/subject/1755384/
◎片  长 90分钟(未分级版)
◎导  演 Kenneth J. Hall Kenneth J. Hall
◎编  剧 H·P·洛夫克拉夫特 H.P. Lovecraft / Kenneth J. Hall Kenneth J. Hall
◎主  演 玛丽·沃伦诺夫 Mary Woronov
      Shawn Savage Shawn Savage
      Ashley Fires Ashley Fires
      珍妮特·特雷西·凯希尔 Janet Tracy Keijser

◎简  介

  年轻女人寻找她失踪的妹妹,暗中进入一个天主教中途客栈,遭遇敌视态度的坏女孩,一个令人讨厌的修女,一个堕落的神父,一个杀人倾向的杂物工和一个巨大的独眼怪物......

Video
ID : 1
Format : AVC
Format/Info : Advanced Video Codec
Format profile : [email protected]
Format settings : CABAC / 4 Ref Frames
Format settings, CABAC : Yes
Format settings, Reference frames : 4 frames
Codec ID : V_MPEG4/ISO/AVC
Duration : 1 h 24 min
Bit rate : 9 163 kb/s
Width : 1 920 pixels
Height : 1 080 pixels
Display aspect ratio : 16:9
Frame rate mode : Constant
Frame rate : 23.976 (24000/1001/189150) FPS
Color space : YUV
Chroma subsampling : 4:2:0
Bit depth : 8 bits
Scan type : Progressive
Bits/(Pixel*Frame) : 0.184
Stream size : 5.40 GiB (98%)
Writing library : x264 core 157 r2935 545de2f
Encoding settings : cabac=1 / ref=4 / deblock=1:-3:-3 / analyse=0x3:0x133 / me=umh / subme=10 / psy=1 / psy_rd=1.00:0.00 / mixed_ref=1 / me_range=32 / chroma_me=1 / trellis=2 / 8x8dct=1 / cqm=0 / deadzone=21,11 / fast_pskip=0 / chroma_qp_offset=-2 / threads=6 / lookahead_threads=1 / sliced_threads=0 / nr=0 / decimate=1 / interlaced=0 / bluray_compat=0 / constrained_intra=0 / bframes=16 / b_pyramid=2 / b_adapt=2 / b_bias=0 / direct=3 / weightb=1 / open_gop=0 / weightp=2 / keyint=250 / keyint_min=23 / scenecut=40 / intra_refresh=0 / rc_lookahead=250 / rc=2pass / mbtree=1 / bitrate=9163 / ratetol=1.0 / qcomp=0.60 / qpmin=0 / qpmax=69 / qpstep=4 / cplxblur=20.0 / qblur=0.5 / vbv_maxrate=62500 / vbv_bufsize=78125 / nal_hrd=none / filler=0 / ip_ratio=1.40 / aq=3:1.00
Language : English
Default : Yes
Forced : No
Color range : Limited
Color primaries : BT.709
Matrix coefficients : BT.709

Audio #1
ID : 2
Format : AAC LC
Format/Info : Advanced Audio Codec Low Complexity
Codec ID : A_AAC-2
Duration : 1 h 24 min
Bit rate : 128 kb/s
Channel(s) : 2 channels
Channel layout : L R
Sampling rate : 48.0 kHz
Frame rate : 46.875 FPS (1024 SPF)
Compression mode : Lossy
Stream size : 77.4 MiB (1%)
Language : English
Default : Yes
Forced : No

Audio #2
ID : 3
Format : AAC LC
Format/Info : Advanced Audio Codec Low Complexity
Codec ID : A_AAC-2
Duration : 1 h 24 min
Bit rate : 79.5 kb/s
Channel(s) : 2 channels
Channel layout : L R
Sampling rate : 48.0 kHz
Frame rate : 46.875 FPS (1024 SPF)
Compression mode : Lossy
Stream size : 48.0 MiB (1%)
Title : Commentary with Producer Ed Polgardy and Writer/Director Kenneth J. Hall
Language : English
Default : No
Forced : No

Text #1
ID : 4
Format : UTF-8
Codec ID : S_TEXT/UTF8
Codec ID/Info : UTF-8 Plain Text
Duration : 1 h 22 min
Bit rate : 55 b/s
Count of elements : 993
Stream size : 33.8 KiB (0%)
Language : English
Default : No
Forced : No

Text #2
ID : 5
Format : UTF-8
Codec ID : S_TEXT/UTF8
Codec ID/Info : UTF-8 Plain Text
Duration : 1 h 24 min
Bit rate : 68 b/s
Count of elements : 1347
Stream size : 42.0 KiB (0%)
Title : SDH
Language : English
Default : No
Forced : No

Menu
00:00:00.000 : en:Missing person
00:07:06.843 : en:The investigation
00:13:47.577 : en:Going undercover
00:21:26.327 : en:Larissa\'s supicion
00:25:30.946 : en:Escape attempt
00:31:37.187 : en:Punishment
00:37:59.110 : en:Inspector Hinds
00:46:06.889 : en:Angelena
00:57:07.341 : en:Father Fogerty
01:00:41.638 : en:Black magic
01:03:27.679 : en:Sister Cecilia
01:09:47.016 : en:Final sacrifice





1 个附件 售价 大小 下载 时间

The.Halfway.House.2004.1080p.BluRay.x264.AAC2.0-PTP.torrent 0 金币 14.44K 476 次 2天前

#1楼
发帖时间:2022-01-15 09:01:16   |   回复数:0
游客组