travismk
一代宗师

[更 早] [其他] [喜剧] [BD-1080P] 别拉我短裤 Tire.pas.sur.mon.collant.1978.FRENCH.1080p.BluRay.x264.AAC2.0-HANDJOB 8.08

-->

帖子完整标题:别拉我短裤 Tire.pas.sur.mon.collant.1978.FRENCH.1080p.BluRay.x264.AAC2.0-HANDJOB 8.08GB



◎译  名 别拉我短裤
◎片  名 Tire pas sur mon collant
◎年  代 1978
◎产  地 法国
◎类  别 喜剧
◎语  言 法语
◎上映日期 1978
◎豆瓣评分 /10 from 0 users
◎豆瓣链接 https://movie.douban.com/subject/10784957/
◎片  长 100分钟
◎主  演 雅妮娜·雷诺 Janine Reynaud

◎简  介

  暂无相关剧情介绍

Video
ID : 1
Format : AVC
Format/Info : Advanced Video Codec
Format profile : [email protected]
Format settings : CABAC / 4 Ref Frames
Format settings, CABAC : Yes
Format settings, Reference frames : 4 frames
Codec ID : V_MPEG4/ISO/AVC
Duration : 1 h 42 min
Bit rate : 11.1 Mb/s
Width : 1 800 pixels
Height : 1 080 pixels
Display aspect ratio : 5:3
Frame rate mode : Constant
Frame rate : 24.000 FPS
Color space : YUV
Chroma subsampling : 4:2:0
Bit depth : 8 bits
Scan type : Progressive
Bits/(Pixel*Frame) : 0.238
Stream size : 7.96 GiB (99%)
Writing library : x264 core 155 r2917 0a84d98
Encoding settings : cabac=1 / ref=4 / deblock=1:-3:-3 / analyse=0x3:0x133 / me=umh / subme=10 / psy=1 / psy_rd=1.00:0.00 / mixed_ref=1 / me_range=32 / chroma_me=1 / trellis=2 / 8x8dct=1 / cqm=0 / deadzone=21,11 / fast_pskip=0 / chroma_qp_offset=-2 / threads=34 / lookahead_threads=8 / sliced_threads=0 / nr=0 / decimate=0 / interlaced=0 / bluray_compat=0 / constrained_intra=0 / bframes=16 / b_pyramid=2 / b_adapt=2 / b_bias=0 / direct=3 / weightb=1 / open_gop=0 / weightp=1 / keyint=240 / keyint_min=24 / scenecut=40 / intra_refresh=0 / rc_lookahead=60 / rc=crf / mbtree=0 / crf=20.8 / qcomp=0.60 / qpmin=0 / qpmax=69 / qpstep=4 / vbv_maxrate=62500 / vbv_bufsize=78125 / crf_max=0.0 / nal_hrd=none / filler=0 / ip_ratio=1.40 / pb_ratio=1.30 / aq=1:0.70
Default : Yes
Forced : No
Color range : Limited
Color primaries : BT.709
Transfer characteristics : BT.709
Matrix coefficients : BT.709

Audio
ID : 2
Format : AAC LC
Format/Info : Advanced Audio Codec Low Complexity
Codec ID : A_AAC-2
Duration : 1 h 42 min
Bit rate : 162 kb/s
Channel(s) : 2 channels
Channel layout : L R
Sampling rate : 48.0 kHz
Frame rate : 46.875 FPS (1024 SPF)
Compression mode : Lossy
Stream size : 119 MiB (1%)
Language : French
Default : Yes
Forced : No

Text #1
ID : 3
Format : UTF-8
Codec ID : S_TEXT/UTF8
Codec ID/Info : UTF-8 Plain Text
Duration : 1 h 37 min
Bit rate : 64 b/s
Count of elements : 1452
Stream size : 45.6 KiB (0%)
Language : English
Default : Yes
Forced : No

Text #2
ID : 4
Format : UTF-8
Codec ID : S_TEXT/UTF8
Codec ID/Info : UTF-8 Plain Text
Duration : 1 h 35 min
Bit rate : 74 b/s
Count of elements : 1484
Stream size : 52.1 KiB (0%)
Language : French
Default : No
Forced : No

Menu
00:00:00.000 : :Chapter 1
00:11:09.458 : :Chapter 2
00:20:08.375 : :Chapter 3
00:30:13.542 : :Chapter 4
00:40:36.417 : :Chapter 5
00:51:45.167 : :Chapter 6
01:02:38.500 : :Chapter 7
01:11:56.750 : :Chapter 8
01:22:04.583 : :Chapter 9
01:32:48.375 : :Chapter 10





1 个附件 售价 大小 下载 时间

Tire.pas.sur.mon.collant.1978.FRENCH.1080p.BluRay.x264.AAC2.0-HANDJOB.torrent 0 金币 20.84K 1169 次 2天前

#1楼
发帖时间:2022-01-15 08:58:14   |   回复数:0
游客组