fg603603
一代宗师

[更 早] [欧美] [剧情] [BD-4K] 人类 The.Humans.2021.2160p.WEB-DL.DDP5.1.DV.MKV.x265-NOSiViD 18.32GB

-->

帖子完整标题:人类 The.Humans.2021.2160p.WEB-DL.DDP5.1.DV.MKV.x265-NOSiViD 18.32GB



◎译  名 人类
◎片  名 The Humans
◎年  代 2021
◎产  地 美国
◎类  别 剧情
◎语  言 英语
◎上映日期 2021-09-12(多伦多电影节) / 2021-11-24(美国)
◎豆瓣评分 /10 from 0 users
◎豆瓣链接 https://movie.douban.com/subject/34951045/
◎片  长 108分钟
◎导  演 斯蒂芬·卡勒姆 Stephen Karam
◎编  剧 斯蒂芬·卡勒姆 Stephen Karam
◎主  演 比妮·费尔德斯坦 Beanie Feldstein
      史蒂文·元 Steven Yeun
      朱恩·斯奎布 June Squibb
      理查德·詹金斯 Richard Jenkins
      艾米·舒默 Amy Schumer
      杰妮·霍蒂谢尔 Jayne Houdyshell

◎标  签 美国 | A24 | 2021 | 家庭 | 剧情 | TIFF2021 | 话剧改编 | 美國

◎简  介

  Set inside a pre-war duplex in downtown Manhattan, The Humans follows the course of an evening in which the Blake family gathers to celebrate Thanksgiving. As darkness falls outside the crumbling building, mysterious things start to go bump in the night and family tensions reach a boiling point

Video
ID : 1
Format : HEVC
Format/Info : High Efficiency Video Coding
Format profile : Main [email protected]@High
HDR format : Dolby Vision, Version 1.0, dvhe.05.06, BL+RPU
Codec ID : V_MPEGH/ISO/HEVC
Duration : 1 h 46 min
Bit rate : 24.0 Mb/s
Width : 3 840 pixels
Height : 2 160 pixels
Display aspect ratio : 16:9
Frame rate mode : Constant
Frame rate : 23.976 (24000/1001/189150) FPS
Color space : YUV
Chroma subsampling : 4:2:0
Bit depth : 10 bits
Bits/(Pixel*Frame) : 0.121
Stream size : 17.8 GiB (97%)
Default : Yes
Forced : No

Audio
ID : 2
Format : E-AC-3
Format/Info : Enhanced AC-3
Commercial name : Dolby Digital Plus
Codec ID : A_EAC3
Duration : 1 h 46 min
Bit rate mode : Constant
Bit rate : 640 kb/s
Channel(s) : 6 channels
Channel layout : L R C LFE Ls Rs
Sampling rate : 48.0 kHz
Frame rate : 31.250 FPS (1536 SPF)
Compression mode : Lossy
Stream size : 488 MiB (3%)
Language : English
Service kind : Complete Main
Default : Yes
Forced : No

Text #1
ID : 3
Format : UTF-8
Codec ID : S_TEXT/UTF8
Codec ID/Info : UTF-8 Plain Text
Duration : 1 h 37 min
Bit rate : 77 b/s
Count of elements : 1900
Stream size : 55.4 KiB (0%)
Language : English
Default : No
Forced : No

Text #2
ID : 4
Format : UTF-8
Codec ID : S_TEXT/UTF8
Codec ID/Info : UTF-8 Plain Text
Duration : 1 h 42 min
Bit rate : 88 b/s
Count of elements : 2100
Stream size : 66.5 KiB (0%)
Title : SDH
Language : English
Default : No
Forced : No

Menu
01:46:25.000 : en:Credits





1 个附件 售价 大小 下载 时间

The.Humans.2021.2160p.WEB-DL.DDP5.1.DV.MKV.x265-NOSiViD.torrent 0 金币 23.53K 273 次 7天前

#1楼
发帖时间:2021-11-25 14:04:42   |   回复数:1
popeye69
一派掌门
感谢楼主分享。
7天前 #2楼
游客组