topgood
武林高手

[更 早] [欧美] [动作] [WEB-1080P] 劫持游侠 Rogue.Hostage.2021.1080p.WEBRip.DD5.1.x264-CM 3.24GB

-->

帖子完整标题:劫持游侠 Rogue.Hostage.2021.1080p.WEBRip.DD5.1.x264-CM 3.24GB



◎译  名 劫持游侠/Red 48
◎片  名 Rogue Hostage
◎年  代 2022
◎产  地 美国
◎类  别 动作 / 惊悚 / 犯罪
◎语  言 英语
◎上映日期 2021-06-11(美国)
◎豆瓣评分 /10 from 0 users
◎豆瓣链接 https://movie.douban.com/subject/35203378/
◎导  演 强·基耶斯 Jon Keeyes
◎主  演 霍莉·泰勒 Holly Taylor
      约翰·马尔科维奇 John Malkovich
      迈克尔·加·怀特 Michael Jai White
      泰瑞斯·吉布森 Tyrese Gibson
      劳伦·维勒斯 Lauren Vélez
      克里斯托弗·巴库斯 Christopher Backus
      约翰·D·希克曼 John D. Hickman
      莱斯莉·斯特拉顿 Leslie Stratton
      亚历山大·维舍尔鲍默 Aleksander Vayshelboym
      艾德里安·阿尔瓦拉多 Adrian Alvarado
      布鲁克·卡雷尔 Brooke Carrell
      Charlie Sara

◎标  签 2021等评分

◎简  介

  Tyrese Gibson, John Malkovich and Michael Jai White will star in Red 48, an indie action thriller from Yale Productions.
  
  Jon Keeyes (The Harrowing) is directing the feature, which has an original script by Mickey Solis and is wrapping production this week in and around the Tri-State area.
  
  Gibson will play Kyle Snowden, a troubled former Marine turned child protective service officer who must save an immigrant child from a dangerous criminal who has trapped them and other hostages inside a convenience store. Adding more power to the keg: The store is owned by the Snowden's stepfather, Sam Safty, being played by Malkovich. White plays Sparks, the Safty's no-nonsense bodyguard and confidant.
  
  Gibson is also producing the project along with Keeyes. Jordan Yale Levine and Jordan Beckerman are producing via their Yale Productions banner.

Video
ID : 1
Format : AVC
Format/Info : Advanced Video Codec
Format profile : [email protected]
Format settings : CABAC / 2 Ref Frames
Format settings, CABAC : Yes
Format settings, Reference frames : 2 frames
Codec ID : V_MPEG4/ISO/AVC
Duration : 1 h 33 min
Bit rate : 4 565 kb/s
Width : 1 920 pixels
Height : 1 080 pixels
Display aspect ratio : 16:9
Frame rate mode : Constant
Frame rate : 23.976 (24000/1001/189150) FPS
Color space : YUV
Chroma subsampling : 4:2:0
Bit depth : 8 bits
Scan type : Progressive
Bits/(Pixel*Frame) : 0.092
Stream size : 2.99 GiB (92%)
Writing library : x264 core 155 r2901 7d0ff22
Language : English
Default : Yes
Forced : No
Color range : Limited
Color primaries : BT.709
Transfer characteristics : BT.709
Matrix coefficients : BT.709

Audio
ID : 2
Format : AC-3
Format/Info : Audio Coding 3
Commercial name : Dolby Digital
Codec ID : A_AC3
Duration : 1 h 33 min
Bit rate mode : Constant
Bit rate : 384 kb/s
Channel(s) : 6 channels
Channel layout : L R C LFE Ls Rs
Sampling rate : 48.0 kHz
Frame rate : 31.250 FPS (1536 SPF)
Compression mode : Lossy
Stream size : 257 MiB (8%)
Language : English
Service kind : Complete Main
Default : Yes
Forced : No

Text
ID : 3
Format : UTF-8
Codec ID : S_TEXT/UTF8
Codec ID/Info : UTF-8 Plain Text
Duration : 1 h 25 min
Bit rate : 46 b/s
Count of elements : 976
Stream size : 29.2 KiB (0%)
Language : English
Default : Yes
Forced : No





1 个附件 售价 大小 下载 时间

Rogue.Hostage.2021.1080p.WEBRip.DD5.1.x264-CM.torrent 0 金币 33.03K 2324 次 9天前

#1楼
发帖时间:2021-06-11 17:33:05   |   回复数:0
游客组