原生系统
一派掌门

[2010] [大陆] [奇幻] [全集] [网盘下载][神话.The.Myth][全50集][国语中字.有台标][WEB-MP4][1080P][Internet][网络修复版]

-->


◎译  名 The Myth

◎片  名 神话

◎年  代 2010

◎产  地 中国大陆

◎类  别 剧情 / 动作 / 奇幻

◎语  言 普通话

◎上映日期 2010-01-02(中国大陆)

◎豆瓣评分 7.6/10 from 65870 users

◎豆瓣链接 https://movie.douban.com/subject/3732699

◎集  数 50

◎片  长 46分钟

◎导  演 蒋家骏 Jeffrey Chiang

◎编  剧 李海蜀 Haishu Li

◎主  演 胡歌 Ge Hu

       白冰 Bing Bai

       张世 Shih Chang

       任泉 Quan Ren

       陈紫函 Zihan Chen

       金莎 Sha Jin

       李易祥 Yixiang Li

       谭凯 Kai Tan

       张萌 Alina Zhang

       周野芒 Yemang Zhou

       丁子峻 Allen Ting

       徐敏 Min Xu

       臧金生 Jinsheng Zang

       赵聪 Cong Zhao

       张春仲 Chunzhong Zhang

       高珑珂 Longke Gao

       董子武 Ziwu Dong

       石天硕 Tianshuo Shi

       宋欣洁 Xinjie Song

       小林杰 2 Krayze

       刘小溪 Xiaoxi Liu

       董可飞 Kefei Dong

       孙锡堃 Xikun Sun

       佟小虎 Xiaohu Tong

       魏伯勤 Boqin Wei

       符爽 Shuang Fu

       福海 Hai Fu

       江元 Yuan Jiang

       许娣 Di Xu

       杨树田 Shutian Yang

       一真 Zhen Yi

       闫彦龙 Yanlong Yan

       刘腾远 Tengyuan Liu

       卫莱 Lai Wei

       王之夏 Zhixia Wang

       马敬涵 Jinghan Ma


◎标  签 穿越 | 神话 | 古装 | 国产电视剧 | 电视剧 | 奇幻 | 爱情 | 中国


◎简  介


  改编自电影版的《神话》。80后男孩易小川(胡歌 饰)来到父亲工作的考古现场,意外地卷入了一场夺宝斗争,与好友高要(张世 饰)一起穿越到了2200多年前的秦朝。小川先后遇到了项羽(谭凯 饰)与刘邦(李易祥 饰),遂与二人结为兄弟,并阴差阳错的被大将军蒙恬(丁子峻 饰) 认成了弟弟蒙毅,小川由于现代人的鬼马搞笑被众多女子爱慕着,其中就有吕雉(陈紫函 饰)与吕素(金莎 饰)两姐妹,但是小川心中只有意外相识的图安公主玉漱(白冰 饰)。而高要则成为了大奸臣赵高,认了跟妹妹高岚(张萌 饰)长相一样的宫女小月当义妹。小川的第27任女友高岚在和小川哥哥易大川(任泉 饰)一起寻找他们下落时日久生情。眼看秦国将亡,小川与玉漱公主能否长相厮守?高要又将何去何从?



General

Complete name               : C:\Users\Vampire\Desktop\神话.01.1080p.mp4

Format                      : MPEG-4

Format profile              : Base Media

Codec ID                    : isom (isom/iso2/avc1/mp41)

File size                   : 769 MiB

Duration                    : 46 min 5 s

Overall bit rate            : 2 333 kb/s

Encoded date                : UTC 2021-03-10 01:07:52

Tagged date                 : UTC 2021-03-10 01:07:52

Writing application         : Lavf58.64.100


Video

ID                          : 1

Format                      : AVC

Format/Info                 : Advanced Video Codec

Format profile              : [email protected]

Format settings             : CABAC / 5 Ref Frames

Format settings, CABAC      : Yes

Format settings, Reference  : 5 frames

Codec ID                    : avc1

Codec ID/Info               : Advanced Video Coding

Duration                    : 46 min 5 s

Bit rate                    : 2 200 kb/s

Width                       : 1 920 pixels

Height                      : 1 080 pixels

Display aspect ratio        : 16:9

Frame rate mode             : Constant

Frame rate                  : 25.000 FPS

Color space                 : YUV

Chroma subsampling          : 4:2:0

Bit depth                   : 8 bits

Scan type                   : Progressive

Bits/(Pixel*Frame)          : 0.042

Stream size                 : 725 MiB (94%)

Encoded date                : UTC 2021-03-10 01:07:52

Tagged date                 : UTC 2021-03-10 01:07:52

Color range                 : Limited

Color primaries             : BT.709

Transfer characteristics    : BT.709

Matrix coefficients         : BT.709

Codec configuration box     : avcC


Audio

ID                          : 2

Format                      : AAC LC

Format/Info                 : Advanced Audio Codec Low Complexity

Codec ID                    : mp4a-40-2

Duration                    : 46 min 5 s

Bit rate mode               : Constant

Bit rate                    : 126 kb/s

Channel(s)                  : 2 channels

Channel layout              : L R

Sampling rate               : 44.1 kHz

Frame rate                  : 43.066 FPS (1024 SPF)

Compression mode            : Lossy

Stream size                 : 41.4 MiB (5%)

Default                     : Yes

Alternate group             : 1

Encoded date                : UTC 2021-03-10 01:07:52

Tagged date                 : UTC 2021-03-10 01:07:52


本人发布的种子请使用专业BT下载工具:

UT,Bitcomet,qBittorrent,Xdown开启上传后再下载!!!

使用迅雷或度盘离线可能会没速度!!!


视频的网盘资源均在视频后缀(如mp4或mkv)后又跟随了.xy(mp4.xy或mkv.xy)用以混淆官方视听!
并且加密了文件名,设置了独有的解压密码,请使用WinRAR解压,使用好压或其他可能会出错!
已完结剧集不再分集打包上传,整体打包后分卷,无法单独下载某一集,需要全部下载后一起解压,敬请知晓!
请各位下载的坛友先保存至自己的网盘,然后再进行下载!!!
不要直接在线观看或者解压,否则会很快被网盘官方发觉并和谐!


阿里云盘后缀名凡是“PDF”的,请在下载完成后将后缀名“PDF”修改为“rar”,即可正常解压,观看!

目前阿里云盘上传和下载均不限速,趁着这段“免费VIP”的时间,就暂时放弃度盘吧!


请下载完成的朋友自觉做种一段时间,小水管出种不易,且下且珍惜,谢谢!!!


解压请使用官方原版WinRAR,使用破解版或者好压等软件可能会出错,感谢所有赞赏的朋友!!!


1 个附件 售价 大小 下载 时间

《神话》全50集.1080P.国语中字有台标阿里云盘版(失效不免费补).rar 0 金币 1.15M 5243 次 8天前

#1楼
发帖时间:2021-10-13 23:04:34   |   回复数:4
madkah
武林高手
支持发布资源。
7天前 #2楼
天天好人
小有名气
手机上看还是很清楚的,不错,央视的台标,很官方啊
7天前 #3楼
webcxy
武林高手
找了好久了,感谢分享
7天前 #4楼
lindaxiang
武林高手
渣男易小川
7天前 #5楼
游客组