呆呆狐狸
隐世仙人♂

[更 早] [美国] [科幻] [打包] [BT下载][迷离档案 The Outer Limits 第二季][全17集][英语英字][BD-MKV][720P/1080P][BD-RAW]

-->

◎译  名 迷离档案/老版迷离档案

◎片  名 The Outer Limits

◎年  代 1963

◎产  地 美国

◎类  别 奇幻/恐怖/科幻/剧情/悬疑/惊悚

◎语  言 英语

◎上映日期 1963

◎IMDb评分  8.2/10 from 5,565 users

◎IMDb链接  http://www.imdb.com/title/tt0056777/

◎片  长 51 分钟

◎导  演 Leslie Stevens

◎主  演 Vic Perrin

      Bob Johnson


◎简  介


  Anthology type science fiction program with a different cast each week. Tending toward the hard science, space travel, time travel, and human evolution it tries to examine in each show some form of the question, "What is the nature of man?"



Video
ID : 1
Format : AVC
Format/Info : Advanced Video Codec
Format profile : [email protected]
Format settings : CABAC / 5 Ref Frames
Format settings, CABAC : Yes
Format settings, ReFrames : 5 frames
Codec ID : V_MPEG4/ISO/AVC
Duration : 51 min 5 s
Bit rate : 13.8 Mb/s
Width : 1 440 pixels
Height : 1 080 pixels
Display aspect ratio : 4:3
Frame rate mode : Constant
Frame rate : 23.976 (24000/1001) FPS
Color space : YUV
Chroma subsampling : 4:2:0
Bit depth : 8 bits
Scan type : Progressive
Bits/(Pixel*Frame) : 0.370
Stream size : 4.92 GiB (90%)
Writing library : x264 core 157 r2935 545de2f
Encoding settings : cabac=1 / ref=5 / deblock=1:-3:-3 / analyse=0x3:0x113 / me=umh / subme=8 / psy=1 / psy_rd=1.10:0.00 / mixed_ref=1 / me_range=32 / chroma_me=1 / trellis=2 / 8x8dct=1 / cqm=0 / deadzone=21,11 / fast_pskip=1 / chroma_qp_offset=-2 / threads=34 / lookahead_threads=5 / sliced_threads=0 / nr=0 / decimate=1 / interlaced=0 / bluray_compat=0 / constrained_intra=0 / bframes=3 / b_pyramid=2 / b_adapt=2 / b_bias=0 / direct=3 / weightb=1 / open_gop=0 / weightp=2 / keyint=240 / keyint_min=24 / scenecut=40 / intra_refresh=0 / rc_lookahead=50 / rc=2pass / mbtree=1 / bitrate=13803 / ratetol=1.0 / qcomp=0.60 / qpmin=0 / qpmax=69 / qpstep=4 / cplxblur=20.0 / qblur=0.5 / ip_ratio=1.40 / aq=3:0.70
Default : Yes
Forced : No

Audio
ID : 2
Format : DTS
Format/Info : Digital Theater Systems
Codec ID : A_DTS
Duration : 51 min 5 s
Bit rate mode : Constant
Bit rate : 1 509 kb/s
Channel(s) : 2 channels
Channel layout : L R
Sampling rate : 48.0 kHz
Frame rate : 93.750 FPS (512 SPF)
Bit depth : 24 bits
Compression mode : Lossy
Stream size : 551 MiB (10%)
Language : English
Default : Yes
Forced : No

Text
ID : 3
Format : UTF-8
Codec ID : S_TEXT/UTF8
Codec ID/Info : UTF-8 Plain Text
Duration : 50 min 4 s
Bit rate : 73 b/s
Count of elements : 869
Stream size : 26.8 KiB (0%)
Language : English
Default : No
Forced : No

Menu
00:00:00.000 : en:00:00:00.000
00:08:40.145 : en:00:08:40.145
00:19:05.519 : en:00:19:05.519
00:31:51.952 : en:00:31:51.952
00:41:20.728 : en:00:41:20.728



4 个附件 售价 大小 下载 时间

The.Outer.Limits.1963.S02.720p.BluRay.X264-iNGOT[btbtt.me].torrent 0 金币 144.25K 875 次 2018-11-23

The.Outer.Limits.1963.S02.1080p.BluRay.X264-iNGOT[btbtt.me].torrent 0 金币 237.25K 756 次 2018-11-23

The.Outer.Limits.1963.S02.720p.BluRay.x265-PROTON.torrent 0 金币 112.44K 175 次 25天前

The.Outer.Limits.1963.S02.1080p.BluRay.x265-KONTRAST.torrent 0 金币 108.46K 203 次 25天前

#1楼
发帖时间:2018-11-23 21:25:20   |   回复数:3
911degrees
隐世仙人♂
非常感谢,谢谢分享
2018-11-23 #2楼
chulps
一代宗师
~ 感谢分享 ~ 感谢 ~
2018-11-24 #3楼
david19710102
超级版主
0528
25天前 #4楼
游客组