BILL36
隐世仙人♂

[2024] [大陆] [剧情] [WEB-1080P] 看不见影子的少年[第11集][国语配音/中文字幕].Lost.in.the.Shadows.S01.2024.1080p.IQ.WEB-DL.H264.AAC-

-->

完整标题:看不见影子的少年[第11集][国语配音/中文字幕].Lost.in.the.Shadows.S01.2024.1080p.IQ.WEB-DL.H264.AAC-BlackTV 0.65GB



◎标  题 看不见影子的少年
◎译  名 被老虎机吃掉的少年 / Lost in the Shadows
◎年  代 2024
◎产  地 中国大陆
◎类  别 剧情 / 悬疑 / 犯罪
◎语  言 汉语普通话
◎IMDb链接 https://www.imdb.com/title/tt29363640/
◎豆瓣链接 https://movie.douban.com/subject/36282652/
◎导  演 周全 Quan Zhou
◎演  员 张颂文 Songwen Zhang
      荣梓杉 Zishan Rong
      成泰燊 Taishen Cheng
      陈雨锶 Yusi Chen
      李健 Jian Li
      郭柯宇 Keyu Guo
      赵华为 Huawei Zhao
      曾宥臻 Youzhen Zeng
      葛四 Si Ge
      王沛禄 Peilu Wang
      李易祥 Yixiang Li
      雷丰瑞
      张珊萌 Shanmeng Zhang
      姜寒 Han Jiang
      曹磊 Lei Cao

◎简  介
    讲述了一个“失孤”的刑警与一个“没有身份”的孤儿之间,从对立到相互救赎,一起探寻真相走向光明的情感悬疑故事。   一个孤独坚毅的警察,一个野蛮生长的少年,一场不期而遇的纠葛……在一个个失踪谜案交织着谋杀的阴谋逐渐浮出水面之后,迎来的会是暴风骤雨还是风平浪静?是互相救赎还是不可饶恕?恶意也许就在一瞬之间,而遗忘却是如此漫长。在彩虹出现之前,一段过不去的过去,两位不放弃的父亲,三个揪着心的家庭,都在等待一个答案……

部分资源为软字幕,移动端推荐播放器:MxPlayer,nPlayer,infuse ,其他播放器请自行尝试。

部分资源为软字幕,电脑端推荐播放器:PotPlayer,完美解码,KMPLAYER,其他播放器请自行尝试。

下载端推荐纯BT下载软件:qBittorrent,Bitcomet,uTorrent ,其他下载软件请自行尝试。不支持吸血迅雷。

##### MediaInfo ######
General
Unique ID : 28667185452250361883281562917369928484 (0x1591195DDB23B2B276089C5BAF4DDB24)
Complete name : Lost.in.the.Shadows.S01E11.2024.1080p.IQ.WEB-DL.H264.AAC-BlackTV.mkv
Duration : 45 min 13 s
Overall bit rate : 2 069 kb/s

Video
ID : 1
Format : AVC
Format/Info : Advanced Video Codec
Format profile : High@L4
Format settings : CABAC / 3 Ref Frames
Format settings, CABAC : Yes
Format settings, Reference frames : 3 frames
Codec ID : V_MPEG4/ISO/AVC
Duration : 45 min 12 s
Bit rate : 1 875 kb/s
Width : 1 920 pixels
Height : 800 pixels
Display aspect ratio : 2.40:1
Frame rate mode : Constant
Frame rate : 25.000 FPS
Color space : YUV
Chroma subsampling : 4:2:0
Bit depth : 8 bits
Scan type : Progressive
Bits/(Pixel*Frame) : 0.049
Stream size : 606 MiB (91%)
Language : Chinese
Default : Yes
Forced : No
Color range : Limited
Color primaries : BT.709
Transfer characteristics : BT.709
Matrix coefficients : BT.709

Audio
ID : 2
Format : AAC LC
Format/Info : Advanced Audio Codec Low Complexity
Codec ID : A_AAC-2
Duration : 45 min 13 s
Bit rate : 192 kb/s
Channel(s) : 2 channels
Channel layout : L R
Sampling rate : 44.1 kHz
Frame rate : 43.066 FPS (1024 SPF)
Compression mode : Lossy
Stream size : 62.1 MiB (9%)
Title : Mandarin [AAC2.0]
Language : Chinese
Default : No
Forced : No

Text #1
ID : 3
Format : UTF-8
Codec ID : S_TEXT/UTF8
Codec ID/Info : UTF-8 Plain Text
Duration : 40 min 6 s
Bit rate : 47 b/s
Frame rate : 0.299 FPS
Count of elements : 720
Stream size : 13.9 KiB (0%)
Title : Simplified Chinese
Language : Chinese
Default : Yes
Forced : No

Text #2
ID : 4
Format : UTF-8
Codec ID : S_TEXT/UTF8
Codec ID/Info : UTF-8 Plain Text
Duration : 40 min 6 s
Bit rate : 47 b/s
Frame rate : 0.299 FPS
Count of elements : 720
Stream size : 13.9 KiB (0%)
Title : Traditional Chinese
Language : Chinese
Default : No
Forced : No


点击图片可查看大图

软字幕无法在截图上展现,HDR版本/杜比视界版本截图会出现颜色异常,请使用支持的设备播放!



1 个附件 售价 大小 下载 时间

Lost.in.the.Shadows.S01.2024.1080p.IQ.WEB-DL.H264.AAC-BlackTV[1LOU.ME].torrent 0 金币 4.12K 399 次 11天前

#1楼
发帖时间:2024-06-11 19:54:15   |   回复数:0
游客组