BILL36
隐世仙人♂

[2024] [大陆] [喜剧] [WEB-4K] 狐妖小红娘·月红篇[60帧率版本][第33-34集][国语配音/中文字幕].2024.2160p.WEB-DL.H265.HDR.60fps.DDP5.1.At

-->

完整标题:狐妖小红娘·月红篇[60帧率版本][第33-34集][国语配音/中文字幕].2024.2160p.WEB-DL.H265.HDR.60fps.DDP5.1.Atmos-BlackTV 4.31GB



◎标  题 狐妖小红娘·月红篇
◎译  名 狐妖小红娘网剧 / 涂山小红娘 / Fox Spirit Matchmaker: Red-Moon Pact
◎年  代 2024
◎产  地 中国大陆
◎类  别 喜剧 / 奇幻
◎语  言 汉语普通话
◎IMDb链接 https://www.imdb.com/title/tt21388150/
◎豆瓣链接 https://movie.douban.com/subject/26759937/
◎导  演 麦贯之 Kun Chi Mak
      杜林 Jason Du
◎演  员 杨幂 Mi Yang
      龚俊 Jun Gong
      郭晓婷 Xiaoting Guo
      魏哲鸣 Zheming Wei
      胡连馨 Lianxin Hu
      温峥嵘 Zhengrong Wen
      祝绪丹 Xudan Zhu
      杨仕泽 Shize Yang
      陈瑶 Yao Chen
      茅子俊 Zijun Mao
      陈都灵 Duling Chen
      张凌赫 Linghe Zhang
      范明 Ming Fan
      梁超 Chao Liang
      黄志玮 Jerry Huang
      李宇皓 Yuhao Li
      洪潇 Xiao Hong
      冯筱童 Xiaotong Feng
      於薇妮 Winnie
      王晓赟子 Xiaoyunzi Wang

◎简  介
    讲述了人与妖冲突不断的世界中,涂山狐族心怀大义的大当家涂山红红(杨幂 饰)一心冀望两方的平等和和平,为此,她携手人族东方家族遗孤东方月初(龚俊 饰),开启促成缔结人和妖之间的情缘任务,以此抵抗侵蚀庇护涂山上下的苦情树的暗黑力量,瓦解挑拨人和妖之间矛盾的暗黑势力。

部分资源为软字幕,移动端推荐播放器:MxPlayer,nPlayer,infuse ,其他播放器请自行尝试。

部分资源为软字幕,电脑端推荐播放器:PotPlayer,完美解码,KMPLAYER,其他播放器请自行尝试。

下载端推荐纯BT下载软件:qBittorrent,Bitcomet,uTorrent ,其他下载软件请自行尝试。不支持吸血迅雷。

##### MediaInfo ######
General
Unique ID : 176790588535755578001101057696106419264 (0x8500A0FB4F58922DBD8338E665E21440)
Complete name : Fox.Spirit.Matchmaker.RedMoon.Pact.S01E33.2024.2160p.WEB-DL.H265.HDR.60fps.DDP5.1.Atmos-BlackTV.mkv
Duration : 37 min 11 s
Overall bit rate : 8 543 kb/s

Video
ID : 1
Format : HEVC
Format/Info : High Efficiency Video Coding
Format profile : Main [email protected]@Main
HDR format : SMPTE ST 2086, HDR10 compatible
Codec ID : V_MPEGH/ISO/HEVC
Duration : 37 min 11 s
Bit rate : 7 899 kb/s
Width : 3 840 pixels
Height : 1 608 pixels
Display aspect ratio : 2.40:1
Frame rate mode : Constant
Frame rate : 60.000 FPS
Color space : YUV
Chroma subsampling : 4:2:0
Bit depth : 10 bits
Bits/(Pixel*Frame) : 0.021
Stream size : 2.05 GiB (92%)
Language : Chinese
Default : Yes
Forced : No
Color range : Limited
Color primaries : BT.2020
Transfer characteristics : PQ
Matrix coefficients : BT.2020 non-constant
Mastering display color primaries : R: x=0.708000 y=0.292000, G: x=0.170000 y=0.797000, B: x=0.130000 y=0.046000, White point: x=0.312700 y=0.329000
Mastering display luminance : min: 0.0001 cd/m2, max: 1000 cd/m2
Maximum Content Light Level : 725 cd/m2
Maximum Frame-Average Light Level : 48 cd/m2

Audio #1
ID : 2
Format : E-AC-3 JOC
Format/Info : Enhanced AC-3 with Joint Object Coding
Commercial name : Dolby Digital Plus with Dolby Atmos
Codec ID : A_EAC3
Duration : 37 min 11 s
Bit rate mode : Constant
Bit rate : 448 kb/s
Channel(s) : 6 channels
Channel layout : L R C LFE Ls Rs
Sampling rate : 48.0 kHz
Frame rate : 31.250 FPS (1536 SPF)
Compression mode : Lossy
Stream size : 119 MiB (5%)
Title : Mandarin [DDP5.1.Atmos]
Language : Chinese
Service kind : Complete Main
Default : Yes
Forced : No
Complexity index : 16
Number of dynamic objects : 15
Bed channel count : 1 channel
Bed channel configuration : LFE

Audio #2
ID : 3
Format : AAC LC
Format/Info : Advanced Audio Codec Low Complexity
Codec ID : A_AAC-2
Duration : 37 min 11 s
Bit rate : 192 kb/s
Channel(s) : 2 channels
Channel layout : L R
Sampling rate : 44.1 kHz
Frame rate : 43.066 FPS (1024 SPF)
Compression mode : Lossy
Stream size : 51.1 MiB (2%)
Title : Mandarin [AAC2.0]
Language : Chinese
Default : No
Forced : No


点击图片可查看大图

软字幕无法在截图上展现,HDR版本/杜比视界版本截图会出现颜色异常,请使用支持的设备播放!



1 个附件 售价 大小 下载 时间

2024.2160p.WEB-DL.H265.HDR.60fps.DDP5.1.Atmos-BlackTV[1LOU.ME].torrent 0 金币 13.44K 350 次 11天前

#1楼
发帖时间:2024-06-11 19:53:46   |   回复数:0
游客组