BILL36
隐世仙人♂

[2024] [大陆] [真人秀] [WEB-1080P] 一路长大[第04集][国语配音/中文字幕].Yi.Lu.Zhang.Da.S01.2024.1080p.WEB-DL.H264.AAC-LelveTV 1.26

-->

完整标题:一路长大[第04集][国语配音/中文字幕].Yi.Lu.Zhang.Da.S01.2024.1080p.WEB-DL.H264.AAC-LelveTV 1.26GB



◎标  题 一路长大
◎年  代 2024
◎产  地 中国大陆
◎类  别 真人秀
◎语  言 汉语普通话
◎IMDb链接 https://www.imdb.com/title//
◎豆瓣链接 https://movie.douban.com/subject/36540868/
◎导  演 吴浩宇 Haoyu Wu
◎演  员 朱丹 Dan Zhu
      郑恺 Kai Zheng
      张颜齐 Yanqi Zhang
      刘一阳
      伯远 Yuan Bo
      李湘 Xiang Li
      周奇奇 Qiqi Zhou

◎简  介
    这是一档亲子户外生活观察真人秀。节目聚焦妈妈与孩子双向成长、陪伴的亲子关系,邀请5组有3-6岁萌娃的家庭进行两次户外旅行,在这个过程中妈妈学会放手,孩子学会独立成长。同时,节目邀请有育儿经验的嘉宾和心理专家组成观察团,通过孩子们的旅行、日常生活的呈现看到亲密关系下妈妈与孩子 的共同成长,也看到当代年轻人的洞见自己的过程。

部分资源为软字幕,移动端推荐播放器:MxPlayer,nPlayer,infuse ,其他播放器请自行尝试。

部分资源为软字幕,电脑端推荐播放器:PotPlayer,完美解码,KMPLAYER,其他播放器请自行尝试。

下载端推荐纯BT下载软件:qBittorrent,Bitcomet,uTorrent ,其他下载软件请自行尝试。不支持吸血迅雷。

##### MediaInfo ######
General
Complete name : Yi.Lu.Zhang.Da.S01E04.2024.1080p.WEB-DL.H264.AAC-LelveTV.mp4
Duration : 1 h 7 min
Overall bit rate mode : Variable
Overall bit rate : 2 665 kb/s

Video
ID : 1
Format : AVC
Format/Info : Advanced Video Codec
Format profile : High@L4
Format settings : CABAC / 4 Ref Frames
Format settings, CABAC : Yes
Format settings, Reference frames : 4 frames
Codec ID : avc1
Codec ID/Info : Advanced Video Coding
Duration : 1 h 7 min
Source duration : 1 h 7 min
Bit rate : 2 565 kb/s
Width : 1 920 pixels
Height : 1 080 pixels
Display aspect ratio : 16:9
Frame rate mode : Variable
Frame rate : 25.000 FPS
Minimum frame rate : 24.993 FPS
Maximum frame rate : 25.007 FPS
Color space : YUV
Chroma subsampling : 4:2:0
Bit depth : 8 bits
Scan type : Progressive
Bits/(Pixel*Frame) : 0.049
Stream size : 1.21 GiB (96%)
Source stream size : 1.21 GiB (96%)
Color range : Limited
Color primaries : BT.709
Transfer characteristics : BT.709
Matrix coefficients : BT.709
Codec configuration box : avcC

Audio
ID : 2
Format : AAC LC
Format/Info : Advanced Audio Codec Low Complexity
Codec ID : mp4a-40-2
Duration : 1 h 7 min
Bit rate mode : Variable
Bit rate : 93.4 kb/s
Maximum bit rate : 97.0 kb/s
Channel(s) : 2 channels
Channel layout : L R
Sampling rate : 48.0 kHz
Frame rate : 46.875 FPS (1024 SPF)
Compression mode : Lossy
Stream size : 45.1 MiB (4%)
Default : Yes
Alternate group : 1




1 个附件 售价 大小 下载 时间

Yi.Lu.Zhang.Da.S01.2024.1080p.WEB-DL.H264.AAC-LelveTV[1LOU.ME].torrent 0 金币 5.58K 77 次 28天前

#1楼
发帖时间:2024-04-19 19:47:31   |   回复数:0
游客组