BILL36
隐世仙人♂

[2021] [大陆] [其它] [WEB-1080P] 一级响应[全5集][国语配音/中文字幕].Level.1.S01.2021.1080p.WEB-DL.H264.AAC-LelveTV 3.87GB

-->

完整标题:一级响应[全5集][国语配音/中文字幕].Level.1.S01.2021.1080p.WEB-DL.H264.AAC-LelveTV 3.87GB



◎标  题 一级响应
◎译  名 Level-1
◎年  代 2021
◎产  地 中国大陆
◎类  别 纪录片
◎语  言 汉语普通话
◎IMDb链接 https://www.imdb.com/title//
◎豆瓣评分 9.1/10 (1750人评价)
◎豆瓣链接 https://movie.douban.com/subject/35420001/
◎导  演 秦博 Bo Qin
      谢抒豪 Shuhao Xie
      蒋逸哲 Yizhe Jiang
      张涛 Tao Zhang
      刘跃 Yue Liu
      张怡 Yi Zhang
      孙功旭 Gongxu Sun
      叶钧 Jun Ye
      张晓蕾 Xiaolei Zhang
      杨楠 Nan Yang
      孙尧 Yao Sun
      戴诚娴 Chengxian Dai

◎简  介
    纪录片《一级响应》作为国家广电总局重点指导项目,全景呈现了中国尤其是武汉抗击新冠疫情的全过程。全片共5集,每集50分钟左右。   本片整体风格强调现场感,强调记者的调查走访,强调极致案例,强调用事实说话,强调真情实感。摄制组采访了最早一批感染新冠肺炎的华南海鲜市场商户,记录了武汉病毒所科学家对诸多质疑的回应,披露了国家卫健委特派专家钟南山院士、曾光等在武汉调查走访的诸多细节。摄制组兵分十路,采用蹲守拍摄的手法,长期跟拍金银潭医院院长张定宇、社区街道书记金义兰、志愿者汪勇和成冬、新冠患者“阿念”、钱珞珈等,用观察型纪录片特有的拍摄方式,捕捉到了不同人物面对疫情时的真情实感。   如今,人类与新冠的整场战争,还远远没有结束。隔离,并不是病毒的终极解药。什么才是?正如科学家试图溯源病毒,寻求答案;纪录片《一级响应》也试图溯源人性,寻求答案。镜头对准的,是人类情感的二元色:爱与怕。

部分资源为软字幕,移动端推荐播放器:MxPlayer,nPlayer,infuse ,其他播放器请自行尝试。

部分资源为软字幕,电脑端推荐播放器:PotPlayer,完美解码,KMPLAYER,其他播放器请自行尝试。

下载端推荐纯BT下载软件:qBittorrent,Bitcomet,uTorrent ,其他下载软件请自行尝试。不支持吸血迅雷。

##### MediaInfo ######
General
Complete name : Level.1.S01E01.2021.1080p.WEB-DL.H264.AAC-LelveTV.mp4
Duration : 47 min 35 s
Overall bit rate mode : Variable
Overall bit rate : 1 765 kb/s

Video
ID : 1
Format : AVC
Format/Info : Advanced Video Codec
Format profile : High@L4
Format settings : CABAC / 4 Ref Frames
Format settings, CABAC : Yes
Format settings, Reference frames : 4 frames
Codec ID : avc1
Codec ID/Info : Advanced Video Coding
Duration : 47 min 35 s
Source duration : 47 min 35 s
Bit rate : 1 665 kb/s
Width : 1 920 pixels
Height : 1 080 pixels
Display aspect ratio : 16:9
Frame rate mode : Variable
Frame rate : 25.000 FPS
Minimum frame rate : 24.993 FPS
Maximum frame rate : 25.007 FPS
Color space : YUV
Chroma subsampling : 4:2:0
Bit depth : 8 bits
Scan type : Progressive
Bits/(Pixel*Frame) : 0.032
Stream size : 567 MiB (94%)
Source stream size : 567 MiB (94%)
Writing library : ptw-1.0.129 rcm-vary vbl-0 vwk
Color range : Limited
Color primaries : BT.709
Transfer characteristics : BT.709
Matrix coefficients : BT.709
Codec configuration box : avcC

Audio
ID : 2
Format : AAC LC
Format/Info : Advanced Audio Codec Low Complexity
Codec ID : mp4a-40-2
Duration : 47 min 35 s
Bit rate mode : Variable
Bit rate : 93.4 kb/s
Maximum bit rate : 97.1 kb/s
Channel(s) : 2 channels
Channel layout : L R
Sampling rate : 48.0 kHz
Frame rate : 46.875 FPS (1024 SPF)
Compression mode : Lossy
Stream size : 31.8 MiB (5%)
Default : Yes
Alternate group : 1




1 个附件 售价 大小 下载 时间

Level.1.S01.2021.1080p.WEB-DL.H264.AAC-LelveTV[1LOU.ME].torrent 0 金币 12.42K 284 次 28天前

#1楼
发帖时间:2024-04-19 19:46:52   |   回复数:0
游客组