BILL36
隐世仙人♂

[2024] [大陆] [其它] [WEB-1080P] 我只活一次[全4集][国语配音/中文字幕].YOLO.S01.2024.1080p.WEB-DL.H264.AAC-LelveTV 1.01GB

-->

完整标题:我只活一次[全4集][国语配音/中文字幕].YOLO.S01.2024.1080p.WEB-DL.H264.AAC-LelveTV 1.01GB



◎标  题 我只活一次
◎译  名 《热辣滚烫》幕后纪录片 / 《热辣滚烫》幕后纪实 / 《热辣滚烫》幕后纪实:我只活一次 / YOLO
◎年  代 2024
◎产  地 中国大陆
◎类  别 纪录片
◎语  言 汉语普通话
◎IMDb链接 https://www.imdb.com/title//
◎豆瓣链接 https://movie.douban.com/subject/36773543/
◎演  员 贾玲 Ling Jia
      雷佳音 Jiayin Lei
      张小斐 Xiaofei Zhang
      杨紫 Andy Yang
      沙溢 Yi Sha

◎简  介
    《我只活一次》是电影《热辣滚烫》的幕后纪录片,真实记录了贾玲导演拍摄《热辣滚烫》所不为人知的幕后故事。   该片历时20个月拍摄制作完成,共分4集,分别是《冒险》《蜕变》《冲刺》《拳手》。这既是一部电影的幕后工作纪实,同时也全程记录了贾玲为了塑造角色所经历的一场冒险及跌宕起伏的心路历程。

部分资源为软字幕,移动端推荐播放器:MxPlayer,nPlayer,infuse ,其他播放器请自行尝试。

部分资源为软字幕,电脑端推荐播放器:PotPlayer,完美解码,KMPLAYER,其他播放器请自行尝试。

下载端推荐纯BT下载软件:qBittorrent,Bitcomet,uTorrent ,其他下载软件请自行尝试。不支持吸血迅雷。

##### MediaInfo ######
General
Complete name : YOLO.S01E01.2024.1080p.WEB-DL.H264.AAC-LelveTV.mp4
Duration : 25 min 24 s
Overall bit rate mode : Variable
Overall bit rate : 1 477 kb/s

Video
ID : 1
Format : AVC
Format/Info : Advanced Video Codec
Format profile : High@L4
Format settings : CABAC / 4 Ref Frames
Format settings, CABAC : Yes
Format settings, Reference frames : 4 frames
Codec ID : avc1
Codec ID/Info : Advanced Video Coding
Duration : 25 min 24 s
Source duration : 25 min 24 s
Bit rate : 1 378 kb/s
Width : 1 920 pixels
Height : 816 pixels
Display aspect ratio : 2.35:1
Frame rate mode : Variable
Frame rate : 25.000 FPS
Minimum frame rate : 24.993 FPS
Maximum frame rate : 25.007 FPS
Color space : YUV
Chroma subsampling : 4:2:0
Bit depth : 8 bits
Scan type : Progressive
Bits/(Pixel*Frame) : 0.035
Stream size : 250 MiB (93%)
Source stream size : 250 MiB (93%)
Color range : Limited
Color primaries : BT.709
Transfer characteristics : BT.709
Matrix coefficients : BT.709
Codec configuration box : avcC

Audio
ID : 2
Format : AAC LC
Format/Info : Advanced Audio Codec Low Complexity
Codec ID : mp4a-40-2
Duration : 25 min 24 s
Bit rate mode : Variable
Bit rate : 93.4 kb/s
Maximum bit rate : 96.7 kb/s
Channel(s) : 2 channels
Channel layout : L R
Sampling rate : 48.0 kHz
Frame rate : 46.875 FPS (1024 SPF)
Compression mode : Lossy
Stream size : 17.0 MiB (6%)
Default : Yes
Alternate group : 1




1 个附件 售价 大小 下载 时间

YOLO.S01.2024.1080p.WEB-DL.H264.AAC-LelveTV[1LOU.ME].torrent 0 金币 5.18K 1589 次 28天前

#1楼
发帖时间:2024-04-19 19:45:58   |   回复数:0
游客组