travismk
一代宗师

[2012] [欧美] [爱情] [WEB-1080P] 赛艇人生 Backwards.2012.1080p.AMZN.WEBRip.DDP5.1.x264-SiGLA 6.28GB

-->

帖子完整标题:赛艇人生 Backwards.2012.1080p.AMZN.WEBRip.DDP5.1.x264-SiGLA 6.28GB



◎标  题 赛艇人生
◎片  名 Backwards
◎年  代 2012
◎产  地 美国
◎类  别 爱情 / 运动
◎语  言 英语
◎上映日期 2012-09-21
◎IMDb评分 5.5/10 (731人评价)
◎IMDb链接 https://www.imdb.com/title/tt2005153/
◎豆瓣链接 https://movie.douban.com/subject/6873833/
◎片  长 86分钟
◎演  员 詹姆斯·范德比克 James Van Der Beek
      格伦·莫肖尔 Glenn Morshower
      玛格丽特·柯林 Margaret Colin
      维恩·埃维雷特 Wynn Everett
      利兹·霍坦 Liz Holtan
      大卫·阿伦·伯施理 David Alan Basche

◎简  介
  When a fiercely competitive 30 year old rower fails to make the Olympic boat for the second time, she takes a coaching job at a school but struggles to adjust to life off the race course.

Video
ID : 1
Format : AVC
Format/Info : Advanced Video Codec
Format profile : [email protected]
Format settings : CABAC / 4 Ref Frames
Format settings, CABAC : Yes
Format settings, Reference frames : 4 frames
Codec ID : V_MPEG4/ISO/AVC
Duration : 1 h 28 min
Bit rate mode : Constant
Bit rate : 9 485 kb/s
Nominal bit rate : 10 000 kb/s
Width : 1 920 pixels
Height : 1 080 pixels
Display aspect ratio : 16:9
Frame rate mode : Constant
Frame rate : 24.000 FPS
Color space : YUV
Chroma subsampling : 4:2:0
Bit depth : 8 bits
Scan type : Progressive
Bits/(Pixel*Frame) : 0.191
Stream size : 5.88 GiB (94%)
Default : Yes
Forced : No
Color range : Limited
Color primaries : BT.709
Transfer characteristics : BT.709
Matrix coefficients : BT.709

Audio
ID : 2
Format : E-AC-3
Format/Info : Enhanced AC-3
Commercial name : Dolby Digital Plus
Codec ID : A_EAC3
Duration : 1 h 28 min
Bit rate mode : Constant
Bit rate : 640 kb/s
Channel(s) : 6 channels
Channel layout : L R C LFE Ls Rs
Sampling rate : 48.0 kHz
Frame rate : 31.250 FPS (1536 SPF)
Compression mode : Lossy
Stream size : 407 MiB (6%)
Language : English
Service kind : Complete Main
Default : Yes
Forced : No

Text #1
ID : 3
Format : UTF-8
Codec ID : S_TEXT/UTF8
Codec ID/Info : UTF-8 Plain Text
Duration : 1 h 27 min
Bit rate : 50 b/s
Frame rate : 0.255 FPS
Count of elements : 1329
Stream size : 32.2 KiB (0%)
Language : English
Default : No
Forced : No

Text #2
ID : 4
Format : UTF-8
Codec ID : S_TEXT/UTF8
Codec ID/Info : UTF-8 Plain Text
Duration : 1 h 28 min
Bit rate : 51 b/s
Frame rate : 0.265 FPS
Count of elements : 1402
Stream size : 33.3 KiB (0%)
Title : SDH
Language : English
Default : No
Forced : No





1 个附件 售价 大小 下载 时间

Backwards.2012.1080p.AMZN.WEBRip.DDP5.1.x264-SiGLA.torrent 0 金币 16.34K 252 次 12天前

#1楼
发帖时间:2022-08-06 11:29:33   |   回复数:0
游客组