travismk
一代宗师

[更 早] [欧美] [恐怖] [BD-1080P] 雪野迷踪 Snowbeast.1977.TV.Version.1080p.BluRay.x264.DD2.0-HANDJOB 6.18GB

-->

帖子完整标题:雪野迷踪 Snowbeast.1977.TV.Version.1080p.BluRay.x264.DD2.0-HANDJOB 6.18GB



◎译  名 雪野迷踪/La bestia de las nieves
◎片  名 Snowbeast
◎年  代 1977
◎产  地 美国
◎类  别 恐怖
◎语  言 英语
◎上映日期 
◎豆瓣评分 /10 from 0 users
◎豆瓣链接 https://movie.douban.com/subject/6394263/
◎片  长 86分钟

◎简  介

  暂无相关剧情介绍

Video
ID : 1
Format : AVC
Format/Info : Advanced Video Codec
Format profile : [email protected]
Format settings : CABAC / 4 Ref Frames
Format settings, CABAC : Yes
Format settings, Reference frames : 4 frames
Codec ID : V_MPEG4/ISO/AVC
Duration : 1 h 12 min
Bit rate : 11.9 Mb/s
Width : 1 734 pixels
Height : 1 080 pixels
Display aspect ratio : 16:10
Frame rate mode : Constant
Frame rate : 23.976 (24000/1001/189150) FPS
Color space : YUV
Chroma subsampling : 4:2:0
Bit depth : 8 bits
Scan type : Progressive
Bits/(Pixel*Frame) : 0.266
Stream size : 6.05 GiB (98%)
Writing library : x264 core 163 r3060 5db6aa6
Encoding settings : cabac=1 / ref=4 / deblock=1:-3:-3 / analyse=0x3:0x133 / me=umh / subme=10 / psy=1 / psy_rd=1.00:0.00 / mixed_ref=1 / me_range=32 / chroma_me=1 / trellis=2 / 8x8dct=1 / cqm=0 / deadzone=21,11 / fast_pskip=0 / chroma_qp_offset=-2 / threads=24 / lookahead_threads=6 / sliced_threads=0 / nr=0 / decimate=0 / interlaced=0 / bluray_compat=0 / constrained_intra=0 / bframes=16 / b_pyramid=2 / b_adapt=2 / b_bias=0 / direct=3 / weightb=1 / open_gop=0 / weightp=2 / keyint=240 / keyint_min=24 / scenecut=40 / intra_refresh=0 / rc_lookahead=60 / rc=crf / mbtree=0 / crf=19.5 / qcomp=0.60 / qpmin=0 / qpmax=69 / qpstep=4 / vbv_maxrate=62500 / vbv_bufsize=78125 / crf_max=0.0 / nal_hrd=none / filler=0 / ip_ratio=1.40 / pb_ratio=1.30 / aq=2:1.00
Default : Yes
Forced : No
Color range : Limited
Color primaries : BT.709
Transfer characteristics : BT.709
Matrix coefficients : BT.709

Audio #1
ID : 2
Format : AC-3
Format/Info : Audio Coding 3
Commercial name : Dolby Digital
Codec ID : A_AC3
Duration : 1 h 12 min
Bit rate mode : Constant
Bit rate : 192 kb/s
Channel(s) : 2 channels
Channel layout : L R
Sampling rate : 48.0 kHz
Frame rate : 31.250 FPS (1536 SPF)
Compression mode : Lossy
Stream size : 99.6 MiB (2%)
Language : English
Service kind : Complete Main
Default : Yes
Forced : No

Audio #2
ID : 3
Format : AAC LC
Format/Info : Advanced Audio Codec Low Complexity
Codec ID : A_AAC-2
Duration : 1 h 12 min
Bit rate : 74.6 kb/s
Channel(s) : 2 channels
Channel layout : L R
Sampling rate : 48.0 kHz
Frame rate : 46.875 FPS (1024 SPF)
Compression mode : Lossy
Stream size : 38.7 MiB (1%)
Title : Commentary by film historians Fred Olen Ray and David DeCoteau
Language : English
Default : No
Forced : No

Menu
00:00:00.000 : :Chapter 1
00:02:06.585 : :Chapter 2
00:09:24.731 : :Chapter 3
00:18:37.617 : :Chapter 4
00:28:44.306 : :Chapter 5
00:38:22.008 : :Chapter 6
00:49:09.155 : :Chapter 7
00:59:12.924 : :Chapter 8
01:09:04.599 : :Chapter 9
01:11:55.353 : :Chapter 10





1 个附件 售价 大小 下载 时间

Snowbeast.1977.TV.Version.1080p.BluRay.x264.DD2.0-HANDJOB.torrent 0 金币 16.09K 287 次 2天前

#1楼
发帖时间:2022-01-15 09:05:32   |   回复数:0
游客组