travismk
一代宗师

[更 早] [其他] [其他] [BD-Remux] 乱战交叉/交叉点 Apache.Junction.2021.1080p.BluRay.REMUX.AVC.DTS-HD.MA.5.1-FGT 21.16GB

-->

帖子完整标题:乱战交叉/交叉点 Apache.Junction.2021.1080p.BluRay.REMUX.AVC.DTS-HD.MA.5.1-FGT 21.16GB



◎译  名 乱战交叉/交叉点
◎片  名 Apache Junction
◎年  代 2021
◎产  地 泰国,美国
◎类  别 西部
◎语  言 英语
◎上映日期 2021-09-24(美国)
◎豆瓣评分 /10 from 0 users
◎豆瓣链接 https://movie.douban.com/subject/35578054/

◎标  签 美国 | 战争 | 捧杀 | WK

◎简  介

  暂无相关剧情介绍

Video
ID : 1
ID in the original source medium : 4113 (0x1011)
Format : AVC
Format/Info : Advanced Video Codec
Format profile : [email protected]
Format settings : CABAC / 4 Ref Frames
Format settings, CABAC : Yes
Format settings, Reference frames : 4 frames
Codec ID : V_MPEG4/ISO/AVC
Duration : 1 h 34 min
Bit rate mode : Variable
Bit rate : 28.1 Mb/s
Maximum bit rate : 30.0 Mb/s
Width : 1 920 pixels
Height : 1 080 pixels
Display aspect ratio : 16:9
Frame rate mode : Constant
Frame rate : 23.976 (24000/1001/189150) FPS
Color space : YUV
Chroma subsampling : 4:2:0
Bit depth : 8 bits
Scan type : Progressive
Bits/(Pixel*Frame) : 0.565
Stream size : 18.6 GiB (88%)
Language : English
Default : No
Forced : No
Original source medium : Blu-ray

Audio #1
ID : 2
ID in the original source medium : 4352 (0x1100)
Format : DTS XLL
Format/Info : Digital Theater Systems
Commercial name : DTS-HD Master Audio
Codec ID : A_DTS
Duration : 1 h 34 min
Bit rate mode : Variable
Bit rate : 3 697 kb/s
Channel(s) : 6 channels
Channel layout : C L R Ls Rs LFE
Sampling rate : 48.0 kHz
Frame rate : 93.750 FPS (512 SPF)
Bit depth : 24 bits
Compression mode : Lossless
Stream size : 2.44 GiB (12%)
Title : DTS-HD MA 5.1
Language : English
Default : Yes
Forced : No
Original source medium : Blu-ray

Audio #2
ID : 3
ID in the original source medium : 4353 (0x1101)
Format : AC-3
Format/Info : Audio Coding 3
Commercial name : Dolby Digital
Codec ID : A_AC3
Duration : 1 h 34 min
Bit rate mode : Constant
Bit rate : 192 kb/s
Channel(s) : 2 channels
Channel layout : L R
Sampling rate : 48.0 kHz
Frame rate : 31.250 FPS (1536 SPF)
Compression mode : Lossy
Stream size : 130 MiB (1%)
Title : DD 2.0
Language : English
Service kind : Complete Main
Default : No
Forced : No
Original source medium : Blu-ray

Text #1
ID : 4
Format : UTF-8
Codec ID : S_TEXT/UTF8
Codec ID/Info : UTF-8 Plain Text
Duration : 1 h 28 min
Bit rate : 52 b/s
Count of elements : 975
Stream size : 34.2 KiB (0%)
Language : English
Default : Yes
Forced : No

Text #2
ID : 5
Format : UTF-8
Codec ID : S_TEXT/UTF8
Codec ID/Info : UTF-8 Plain Text
Duration : 1 h 29 min
Bit rate : 55 b/s
Count of elements : 1059
Stream size : 35.9 KiB (0%)
Title : SDH
Language : English
Default : No
Forced : No

Text #3
ID : 6
ID in the original source medium : 4608 (0x1200)
Format : PGS
Muxing mode : zlib
Codec ID : S_HDMV/PGS
Codec ID/Info : Picture based subtitle format used on BDs/HD-DVDs
Duration : 1 h 29 min
Bit rate : 34.4 kb/s
Count of elements : 2204
Stream size : 22.0 MiB (0%)
Language : English
Default : No
Forced : No
Original source medium : Blu-ray

Text #4
ID : 7
ID in the original source medium : 4609 (0x1201)
Format : PGS
Muxing mode : zlib
Codec ID : S_HDMV/PGS
Codec ID/Info : Picture based subtitle format used on BDs/HD-DVDs
Duration : 1 h 32 min
Bit rate : 29.7 kb/s
Count of elements : 1946
Stream size : 19.6 MiB (0%)
Language : Spanish
Default : No
Forced : No
Original source medium : Blu-ray

Menu
00:00:00.000 : en:Chapter 01
00:14:16.689 : en:Chapter 02
00:20:12.211 : en:Chapter 03
00:28:51.730 : en:Chapter 04
00:33:40.685 : en:Chapter 05
00:44:28.832 : en:Chapter 06
00:52:56.506 : en:Chapter 07
01:02:37.795 : en:Chapter 08
01:10:04.533 : en:Chapter 09
01:30:15.910 : en:Chapter 10





1 个附件 售价 大小 下载 时间

Apache.Junction.2021.1080p.BluRay.REMUX.AVC.DTS-HD.MA.5.1-FGT.torrent 0 金币 27.08K 833 次 6天前

#1楼
发帖时间:2021-11-25 22:37:34   |   回复数:2
liyouchai
隐世仙人♂
谢谢楼主分享资源
6天前 #2楼
popeye69
一派掌门
感谢楼主分享。
6天前 #3楼
游客组