travismk
一代宗师

[更 早] [其他] [动作] [BD-720P] 星际之门/时空之门 Stargate.Special.Edition.1994.iNTERNAL.720p.BluRay.x264-HONOR 6.37GB

-->

帖子完整标题:星际之门/时空之门 Stargate.Special.Edition.1994.iNTERNAL.720p.BluRay.x264-HONOR 6.37GB



◎译  名 星际之门/时空之门/星际奇兵
◎片  名 Stargate
◎年  代 1994
◎产  地 法国,美国
◎类  别 动作 / 科幻 / 奇幻 / 冒险
◎语  言 英语,挪威语,瑞典语
◎上映日期 1994-10-28
◎豆瓣评分 7.2/10 from 13447 users
◎豆瓣链接 https://movie.douban.com/subject/1302209/
◎片  长 121 分钟
◎导  演 罗兰·艾默里奇 Roland Emmerich
◎编  剧 迪安·德夫林 Dean Devlin / 罗兰·艾默里奇 Roland Emmerich
◎主  演 詹姆斯·斯派德 James Spader
      库尔特·拉塞尔 Kurt Russell
      艾利希斯·克鲁兹 Alexis Cruz
      韦薇卡·琳德佛斯 Viveca Lindfors
      杰曼·翰苏 Djimon Hounsou
      艾瑞克·阿瓦利 Erick Avari
      杰伊·戴维森 Jaye Davidson
      米莉·阿威塔尔 Mili Avital
      Nick Wilder Nick Wilder
      基特·韦斯特 Kit West
      德里克·韦伯斯特 Derek Webster
      斯科特·阿兰·史密斯 Scott Alan Smith
      弗伦奇·斯图尔特 French Stewart
      弗兰克·维尔克 Frank Welker
      理查德·坎德 Richard Kind
      Carlos Lauchu Carlos Lauchu
      约翰·迪尔 John Diehl
      Rae Allen Rae Allen
      大卫·普雷斯曼 David Pressman
      莱昂·里皮 Leon Rippy
      Kelly Vint Kelly Vint
      罗杰·蒂尔 Roger Til

◎标  签 科幻 | 美国 | 星际之门 | 1994 | 美国电影 | 星际旅行 | 动作 | 电影

◎简  介

  美国军方在地球的某处发现了一个奇怪的圆环,圆环的制造技术完全不同于地球,而且通过测定圆环的历史非常久远甚至可以追溯到人类出现之前,圆环上还刻有很多奇怪的符号。这个圆环到底有什么作用?考古学家丹尼尔·杰克逊(詹姆斯·斯派德 James Spader 饰)博士对古埃及的象形文字及其历史有很深的研究,而且对金字塔的建造也有一套自己的理论,可是他的观点却无法被人所接受。为了能寻找有力的证据,他开始对军方发现的这个圆环进行研究,却发现这个圆环却是一个高科技产物,通过特定编码的推动能与另外一个圆环联通,形成一个虫洞,可以进行超长距离且耗时极短的空间旅行。为了探知圆环联通的另一端到底有什么,丹尼尔与杰克·欧尼尔(库尔特·拉塞尔 Kurt Russell 饰)上校为首的军方小队一起穿越这星际之门,进入另外一个世界探险。在另一边,他们发现了很多令人无法相信的事情,金字塔的建造之谜、外星人是否到访过地球这些不解之谜都有了一个新的解读……

Video
ID : 1
Format : AVC
Format/Info : Advanced Video Codec
Format profile : [email protected]
Format settings : CABAC / 8 Ref Frames
Format settings, CABAC : Yes
Format settings, Reference frames : 8 frames
Codec ID : V_MPEG4/ISO/AVC
Duration : 2 h 9 min
Bit rate : 5 869 kb/s
Width : 1 280 pixels
Height : 534 pixels
Display aspect ratio : 2.40:1
Frame rate mode : Constant
Frame rate : 23.976 (24000/1001/189150) FPS
Color space : YUV
Chroma subsampling : 4:2:0
Bit depth : 8 bits
Scan type : Progressive
Bits/(Pixel*Frame) : 0.358
Stream size : 5.33 GiB (84%)
Writing library : x264 core 164 r3075 66a5bc1
Encoding settings : cabac=1 / ref=8 / deblock=1:0:0 / analyse=0x3:0x133 / me=umh / subme=9 / psy=1 / psy_rd=1.00:0.00 / mixed_ref=1 / me_range=16 / chroma_me=1 / trellis=2 / 8x8dct=1 / cqm=0 / deadzone=21,11 / fast_pskip=1 / chroma_qp_offset=-2 / threads=34 / lookahead_threads=2 / sliced_threads=0 / nr=0 / decimate=1 / interlaced=0 / bluray_compat=0 / constrained_intra=0 / bframes=3 / b_pyramid=2 / b_adapt=2 / b_bias=0 / direct=3 / weightb=1 / open_gop=0 / weightp=2 / keyint=240 / keyint_min=23 / scenecut=40 / intra_refresh=0 / rc_lookahead=50 / rc=crf / mbtree=1 / crf=16.7 / qcomp=0.60 / qpmin=0 / qpmax=69 / qpstep=4 / ip_ratio=1.40 / aq=1:1.00
Default : Yes
Forced : No
Color range : Limited
Matrix coefficients : BT.709

Audio
ID : 2
Format : DTS
Format/Info : Digital Theater Systems
Codec ID : A_DTS
Duration : 2 h 9 min
Bit rate mode : Constant
Bit rate : 1 152 kb/s
Channel(s) : 6 channels
Channel layout : C L R Ls Rs LFE
Sampling rate : 48.0 kHz
Frame rate : 93.750 FPS (512 SPF)
Bit depth : 24 bits
Compression mode : Lossy
Stream size : 1.05 GiB (16%)
Default : Yes
Forced : No

Menu
00:00:00.000 : en:Chapter 01
00:12:31.751 : en:Chapter 02
00:30:34.833 : en:Chapter 03
01:01:47.829 : en:Chapter 04
01:13:17.393 : en:Chapter 05
01:27:26.783 : en:Chapter 06
01:43:35.918 : en:Chapter 07
02:01:56.935 : en:Chapter 08





2 个附件 售价 大小 下载 时间

Bruised.2020.1080p.WEBRip.x264-RARBG.torrent 0 金币 27.24K 875 次 7天前

Stargate.Special.Edition.1994.iNTERNAL.720p.BluRay.x264-HONOR.torrent 0 金币 16.69K 1344 次 6天前

#1楼
发帖时间:2021-11-25 22:06:47   |   回复数:2
popeye69
一派掌门
谢谢楼主分享。
6天前 #2楼
feung18
武林高手
谢谢分享
6天前 #3楼
游客组