fg603603
一代宗师

[更 早] [欧美] [剧情] [4K-原盘] 社会威胁/威胁2:社会 Menace.II.Society.1993.2160p.BluRay.REMUX.HEVC.DTS-HD.MA.7.1-FGT 55.

-->

帖子完整标题:社会威胁/威胁2:社会 Menace.II.Society.1993.2160p.BluRay.REMUX.HEVC.DTS-HD.MA.7.1-FGT 55.61GB



◎译  名 社会威胁/威胁2:社会/社会的威胁
◎片  名 Menace II Society
◎年  代 1993
◎产  地 美国
◎类  别 剧情 / 犯罪
◎语  言 英语
◎上映日期 1993-05-26
◎豆瓣评分 7.9/10 from 633 users
◎豆瓣链接 https://movie.douban.com/subject/1300493/
◎片  长 97 分钟
◎导  演 艾尔伯特·休斯 Albert Hughes / 艾伦·休斯 Allen Hughes
◎主  演 泰里恩·特纳 Tyrin Turner
      拉伦兹·泰特 Larenz Tate

◎标  签 犯罪 | 美国 | 黑人 | 暴力 | 美国电影 | 种族 | 1993 | 独立电影

◎简  介

  影片开头两位黑人到韩国人开的杂货店买东西,本来好好的,但是两个韩国夫妇从头到尾把他们当贼看,为此发生一点口角,他们就开枪打死了店里的工作人员,之后他们就踏上了不归路了......   影片导演是黑人休斯兄弟。尽管他们还比不上影坛的另外几对兄弟帮科恩、沃卓斯基、法拉里有名,但是他们的两部低成本电影《威胁2:社会》(Menace2:Society)、《死亡总统》(Dead Presidents)都取得了不错的反响。作为黑人,能够打进电影制作圈在好莱坞也十分不易,而他们正是擅长于展现美国黑人绝望阴郁的生存环境。

Video
ID : 1
ID in the original source medium : 4113 (0x1011)
Format : HEVC
Format/Info : High Efficiency Video Coding
Format profile : Main [email protected]@High
HDR format : Dolby Vision, Version 1.0, dvhe.07.06, BL+EL+RPU, Blu-ray compatible / SMPTE ST 2086, HDR10 compatible
Codec ID : V_MPEGH/ISO/HEVC
Duration : 1 h 37 min
Bit rate : 74.2 Mb/s
Width : 3 840 pixels
Height : 2 160 pixels
Display aspect ratio : 16:9
Frame rate mode : Constant
Frame rate : 23.976 (24000/1001/189150) FPS
Color space : YUV
Chroma subsampling : 4:2:0 (Type 2)
Bit depth : 10 bits
Bits/(Pixel*Frame) : 0.373
Stream size : 50.5 GiB (91%)
Language : English
Default : No
Forced : No
Color range : Limited
Color primaries : BT.2020
Transfer characteristics : PQ
Matrix coefficients : BT.2020 non-constant
Mastering display color primaries : BT.2020
Mastering display luminance : min: 0.0001 cd/m2, max: 1000 cd/m2
Maximum Content Light Level : 446 cd/m2
Maximum Frame-Average Light Level : 91 cd/m2
Original source medium : Blu-ray

Audio #1
ID : 2
ID in the original source medium : 4352 (0x1100)
Format : DTS XLL
Format/Info : Digital Theater Systems
Commercial name : DTS-HD Master Audio
Codec ID : A_DTS
Duration : 1 h 37 min
Bit rate mode : Variable
Bit rate : 4 499 kb/s
Channel(s) : 8 channels
Channel layout : C L R LFE Lb Rb Lss Rss
Sampling rate : 48.0 kHz
Frame rate : 93.750 FPS (512 SPF)
Bit depth : 24 bits
Compression mode : Lossless
Stream size : 3.06 GiB (6%)
Title : DTS-HD MA 7.1
Language : English
Default : Yes
Forced : No
Original source medium : Blu-ray

Audio #2
ID : 3
Format : AC-3
Format/Info : Audio Coding 3
Commercial name : Dolby Digital
Codec ID : A_AC3
Duration : 1 h 37 min
Bit rate mode : Constant
Bit rate : 640 kb/s
Channel(s) : 6 channels
Channel layout : L R C LFE Ls Rs
Sampling rate : 48.0 kHz
Frame rate : 31.250 FPS (1536 SPF)
Compression mode : Lossy
Stream size : 446 MiB (1%)
Title : DD 5.1
Language : English
Service kind : Complete Main
Default : No
Forced : No

Audio #3
ID : 4
ID in the original source medium : 4353 (0x1101)
Format : DTS XLL
Format/Info : Digital Theater Systems
Commercial name : DTS-HD Master Audio
Codec ID : A_DTS
Duration : 1 h 37 min
Bit rate mode : Variable
Bit rate : 2 004 kb/s
Channel(s) : 2 channels
Sampling rate : 48.0 kHz
Frame rate : 93.750 FPS (512 SPF)
Bit depth : 24 bits
Compression mode : Lossless
Stream size : 1.36 GiB (2%)
Title : DTS-HD MA 2.0
Language : English
Default : No
Forced : No
Original source medium : Blu-ray

Audio #4
ID : 5
ID in the original source medium : 4354 (0x1102)
Format : AC-3
Format/Info : Audio Coding 3
Commercial name : Dolby Digital
Codec ID : A_AC3
Duration : 1 h 37 min
Bit rate mode : Constant
Bit rate : 192 kb/s
Channel(s) : 1 channel
Channel layout : C
Sampling rate : 48.0 kHz
Frame rate : 31.250 FPS (1536 SPF)
Compression mode : Lossy
Stream size : 134 MiB (0%)
Title : DD 1.0
Language : English
Service kind : Complete Main
Default : No
Forced : No
Original source medium : Blu-ray

Audio #5
ID : 6
ID in the original source medium : 4355 (0x1103)
Format : AC-3
Format/Info : Audio Coding 3
Commercial name : Dolby Digital
Codec ID : A_AC3
Duration : 1 h 37 min
Bit rate mode : Constant
Bit rate : 192 kb/s
Channel(s) : 1 channel
Channel layout : C
Sampling rate : 48.0 kHz
Frame rate : 31.250 FPS (1536 SPF)
Compression mode : Lossy
Stream size : 134 MiB (0%)
Title : DD 1.0
Language : English
Service kind : Complete Main
Default : No
Forced : No
Original source medium : Blu-ray

Text #1
ID : 7
Format : UTF-8
Codec ID : S_TEXT/UTF8
Codec ID/Info : UTF-8 Plain Text
Duration : 1 h 37 min
Bit rate : 93 b/s
Count of elements : 1703
Stream size : 66.4 KiB (0%)
Language : English
Default : Yes
Forced : No

Text #2
ID : 8
Format : UTF-8
Codec ID : S_TEXT/UTF8
Codec ID/Info : UTF-8 Plain Text
Duration : 1 h 37 min
Bit rate : 100 b/s
Count of elements : 1795
Stream size : 71.1 KiB (0%)
Title : SDH
Language : English
Default : No
Forced : No

Text #3
ID : 9
ID in the original source medium : 4768 (0x12A0)
Format : PGS
Muxing mode : zlib
Codec ID : S_HDMV/PGS
Codec ID/Info : Picture based subtitle format used on BDs/HD-DVDs
Duration : 1 h 37 min
Bit rate : 85.1 kb/s
Count of elements : 3602
Stream size : 59.1 MiB (0%)
Language : English
Default : No
Forced : No
Original source medium : Blu-ray

Menu
00:00:00.000 : en:Chapter 01
00:03:43.514 : en:Chapter 02
00:13:52.248 : en:Chapter 03
00:22:48.367 : en:Chapter 04
00:32:01.836 : en:Chapter 05
00:40:03.109 : en:Chapter 06
00:49:37.182 : en:Chapter 07
01:00:41.429 : en:Chapter 08
01:08:10.252 : en:Chapter 09
01:17:24.931 : en:Chapter 10
01:24:23.725 : en:Chapter 11
01:30:59.120 : en:Chapter 12





1 个附件 售价 大小 下载 时间

Menace.II.Society.1993.2160p.BluRay.REMUX.HEVC.DTS-HD.MA.7.1-FGT.torrent 0 金币 70.16K 392 次 7天前

#1楼
发帖时间:2021-11-25 11:28:43   |   回复数:1
popeye69
一派掌门
感谢楼主分享。
7天前 #2楼
游客组