fg603603
一代宗师

[更 早] [欧美] [动作] [BD-Remux] 门徒 The.Protege.2021.1080p.BluRay.REMUX.AVC.DTS-HD.MA.5.1-FGT 20.13GB

-->

帖子完整标题:门徒 The.Protege.2021.1080p.BluRay.REMUX.AVC.DTS-HD.MA.5.1-FGT 20.13GB



◎译  名 门徒/The Asset/The Protege/刺客密令(台)/复仇杀姬(港)/有价之人/资产
◎片  名 The Protégé
◎年  代 2021
◎产  地 美国
◎类  别 动作 / 惊悚 / 犯罪
◎语  言 英语
◎上映日期 2021-08-20(美国)
◎豆瓣评分 5.7/10 from 3257 users
◎豆瓣链接 https://movie.douban.com/subject/34881663/
◎片  长 109分钟
◎导  演 马丁·坎贝尔 Martin Campbell
◎编  剧 理查德·温克 Richard Wenk
◎主  演 李美琪 Maggie Q
      迈克尔·基顿 Michael Keaton
      塞缪尔·杰克逊 Samuel L. Jackson
      大卫·瑞托 David Rintoul
      帕特里克·麦拉海德 Patrick Malahide
      雷·费隆 Ray Fearon
      奥利·普费弗 Ori Pfeffer
      罗伯特·帕特里克 Robert Patrick
      小弗洛林·皮尔斯齐 Florin Piersic Jr.
      杜铎·奇里拉 Tudor Chirila
      沃利扎·比尼夫 Velizar Binev
      乔治·皮斯特拉努 George Pistereanu
      伊娃·努金·索森 Eva Nugyen Thorsen
      亚历克斯·博尔达 Alex Bordea
      塔尼娅·凯勒 Tanja Keller
      塔伊·阿特沃尔 Taj Atwal
      卡罗琳·朗奎 Caroline Loncq
      丽琪达·卡里 Richenda Carey
      大卫·斯特恩 David Sterne
      杰克·德格斯 Jack Derges
      唐·迈克尔·保罗 Don Michael Paul
      叶卡捷琳娜·贝克 Ekaterina Baker

◎标  签 动作 | 杀手 | 美国 | 犯罪 | 2021 | 女性 | 惊悚 | 剧情

◎简  介

  故事围绕伦勃朗(基顿饰)和安娜(李美琪饰)展开,这两个世界上最顶级的杀手将揭露一段发生在越南的神秘往事。多年来,他们游遍全球来互相争夺最抢手的合同。但当安娜的导师穆迪(杰克逊饰)被谋杀时,她和伦勃朗必须结盟,返回越南追捕凶手。

Video
ID : 1
ID in the original source medium : 4113 (0x1011)
Format : AVC
Format/Info : Advanced Video Codec
Format profile : [email protected]
Format settings : CABAC / 4 Ref Frames
Format settings, CABAC : Yes
Format settings, Reference frames : 4 frames
Codec ID : V_MPEG4/ISO/AVC
Duration : 1 h 49 min
Bit rate mode : Variable
Bit rate : 24.5 Mb/s
Maximum bit rate : 35.0 Mb/s
Width : 1 920 pixels
Height : 1 080 pixels
Display aspect ratio : 16:9
Frame rate mode : Constant
Frame rate : 23.976 (24000/1001/189150) FPS
Standard : NTSC
Color space : YUV
Chroma subsampling : 4:2:0
Bit depth : 8 bits
Scan type : Progressive
Bits/(Pixel*Frame) : 0.493
Stream size : 18.7 GiB (93%)
Language : English
Default : No
Forced : No
Color range : Limited
Color primaries : BT.709
Transfer characteristics : BT.709
Matrix coefficients : BT.709
Original source medium : Blu-ray

Audio
ID : 2
ID in the original source medium : 4353 (0x1101)
Format : DTS XLL
Format/Info : Digital Theater Systems
Commercial name : DTS-HD Master Audio
Codec ID : A_DTS
Duration : 1 h 49 min
Bit rate mode : Variable
Bit rate : 1 897 kb/s
Channel(s) : 6 channels
Channel layout : C L R Ls Rs LFE
Sampling rate : 48.0 kHz
Frame rate : 93.750 FPS (512 SPF)
Bit depth : 16 bits
Compression mode : Lossless
Stream size : 1.45 GiB (7%)
Title : DTS-HD ma 5.1
Language : English
Default : Yes
Forced : No
Original source medium : Blu-ray

Text
ID : 3
Format : UTF-8
Codec ID : S_TEXT/UTF8
Codec ID/Info : UTF-8 Plain Text
Duration : 1 h 37 min
Bit rate : 36 b/s
Count of elements : 784
Stream size : 25.7 KiB (0%)
Title : SRT
Language : English
Default : Yes
Forced : No

Menu
00:00:00.000 : Chapter 01
00:11:17.718 : Chapter 02
00:20:51.541 : Chapter 03
00:29:48.286 : Chapter 04
00:38:38.524 : Chapter 05
00:46:42.049 : Chapter 06
00:57:00.834 : Chapter 07
01:05:41.687 : Chapter 08
01:14:30.424 : Chapter 09
01:24:01.953 : Chapter 10
01:33:25.975 : Chapter 11
01:40:32.776 : Chapter 12





1 个附件 售价 大小 下载 时间

The.Protege.2021.1080p.BluRay.REMUX.AVC.DTS-HD.MA.5.1-FGT.torrent 0 金币 25.81K 3430 次 1月前

#1楼
发帖时间:2021-10-10 11:12:08   |   回复数:0
游客组