squallzhao
武林盟主

[更 早] [欧美] [剧情] [BD-720P] 酋长之子塔赞 Taza.Son.of.Cochise.1954.720p.BluRay.x264-GUACAMOLE 4.34GB

-->

帖子完整标题:酋长之子塔赞 Taza.Son.of.Cochise.1954.720p.BluRay.x264-GUACAMOLE 4.34GB



◎译  名 酋长之子塔赞
◎片  名 Taza, Son of Cochise
◎年  代 1954
◎产  地 美国
◎类  别 剧情 / 动作 / 爱情 / 西部
◎语  言 英语
◎上映日期 1954-02-18
◎豆瓣评分 /10 from 0 users
◎豆瓣链接 https://movie.douban.com/subject/2363801/
◎片  长 79 分钟
◎导  演 道格拉斯·塞克 Douglas Sirk
◎编  剧 乔治·朱克曼 George Zuckerman / 杰拉尔德·德雷森·亚当斯 Gerald Drayson Adams
◎主  演 罗克·赫德森 Rock Hudson
      芭芭拉·拉什 Barbara Rush
      格雷格·帕尔默 Gregg Palmer
      James Van Horn James Van Horn
      丹·怀特 Dan White
      乔·索耶 Joe Sawyer
      威廉·莱斯利 William Leslie
      Bradford Jackson Bradford Jackson
      Eugene Iglesias Eugene Iglesias
      罗伯特·F.霍伊 Robert F. Hoy
      查尔斯·霍尔发斯 Charles Horvath
      伊恩·麦克唐纳 Ian MacDonald
      杰夫·钱德勒 Jeff Chandler
      莱克斯·瑞森 Rex Reason
      兰斯·富勒 Lance Fuller
      罗素·约翰逊 Russell Johnson
      莫里斯·安克鲁姆 Morris Ankrum
      罗伯特·伯顿 Robert Burton
      Richard H. Cutting Richard H. Cutting
      约翰·达海姆 John Daheim
      休·欧布莱恩 Hugh O'Brian

◎标  签 DouglasSirk | 西部 | 美国 | Douglas_Sirk | 1950s | 西部片 | 道格拉斯·塞克 | 道格拉斯.塞克

◎简  介

  爱好和平的阿帕奇部落酋长科奇斯去世后,科奇斯爱好和平的儿子塔赞与好战的变节勇士杰罗尼莫争夺起部落的领导权

Video
ID : 1
Format : AVC
Format/Info : Advanced Video Codec
Format profile : [email protected]
Format settings : CABAC / 8 Ref Frames
Format settings, CABAC : Yes
Format settings, Reference frames : 8 frames
Codec ID : V_MPEG4/ISO/AVC
Duration : 1 h 19 min
Bit rate : 7 403 kb/s
Width : 1 280 pixels
Height : 640 pixels
Display aspect ratio : 2.000
Frame rate mode : Constant
Frame rate : 23.976 (24000/1001/189150) FPS
Color space : YUV
Chroma subsampling : 4:2:0
Bit depth : 8 bits
Scan type : Progressive
Bits/(Pixel*Frame) : 0.377
Stream size : 4.09 GiB (94%)
Writing library : x264 core 164 r3065 ae03d92
Encoding settings : cabac=1 / ref=8 / deblock=1:-3:-3 / analyse=0x3:0x133 / me=umh / subme=9 / psy=1 / psy_rd=1.00:0.00 / mixed_ref=1 / me_range=16 / chroma_me=1 / trellis=2 / 8x8dct=1 / cqm=0 / deadzone=21,11 / fast_pskip=0 / chroma_qp_offset=-2 / threads=20 / lookahead_threads=1 / sliced_threads=0 / nr=0 / decimate=1 / interlaced=0 / bluray_compat=0 / constrained_intra=0 / bframes=3 / b_pyramid=2 / b_adapt=2 / b_bias=0 / direct=3 / weightb=1 / open_gop=0 / weightp=2 / keyint=250 / keyint_min=23 / scenecut=40 / intra_refresh=0 / rc_lookahead=60 / rc=crf / mbtree=1 / crf=18.0 / qcomp=0.60 / qpmin=0 / qpmax=69 / qpstep=4 / ip_ratio=1.40 / aq=3:0.60
Default : Yes
Forced : No
Color range : Limited
Matrix coefficients : BT.709

Audio
ID : 2
Format : AC-3
Format/Info : Audio Coding 3
Commercial name : Dolby Digital
Codec ID : A_AC3
Duration : 1 h 19 min
Bit rate mode : Constant
Bit rate : 448 kb/s
Channel(s) : 2 channels
Channel layout : L R
Sampling rate : 48.0 kHz
Frame rate : 31.250 FPS (1536 SPF)
Compression mode : Lossy
Stream size : 253 MiB (6%)
Language : English
Service kind : Complete Main
Default : Yes
Forced : No

Menu
00:00:00.000 : en:00:00:00.000
00:07:17.312 : en:00:07:17.312
00:13:35.773 : en:00:13:35.773
00:20:59.592 : en:00:20:59.592
00:28:37.215 : en:00:28:37.215
00:35:54.778 : en:00:35:54.778
00:42:39.098 : en:00:42:39.098
00:50:30.236 : en:00:50:30.236
00:57:29.404 : en:00:57:29.404
01:02:30.080 : en:01:02:30.080
01:07:47.563 : en:01:07:47.563
01:12:49.490 : en:01:12:49.490





1 个附件 售价 大小 下载 时间

Taza.Son.of.Cochise.1954.720p.BluRay.x264-GUACAMOLE.torrent 0 金币 22.39K 427 次 25天前

#1楼
发帖时间:2021-09-20 13:03:24   |   回复数:0
游客组