squallzhao
武林盟主

[更 早] [欧美] [其他] [BD-1080P] 金枪人 Gunpoint.1966.1080p.BluRay.x264-GUACAMOLE 7.79GB

-->

帖子完整标题:金枪人 Gunpoint.1966.1080p.BluRay.x264-GUACAMOLE 7.79GB



◎译  名 金枪人
◎片  名 Gunpoint
◎年  代 1966
◎产  地 美国
◎类  别 西部
◎语  言 英语
◎上映日期 1966-03-18
◎豆瓣评分 /10 from 0 users
◎豆瓣链接 https://movie.douban.com/subject/1303895/
◎片  长 86 分钟
◎导  演 厄尔·贝拉米 Earl Bellamy
◎编  剧 Willard W. Willingham Willard W. Willingham
◎主  演 奥迪·墨菲 Audie Murphy
      Joan Staley Joan Staley
      沃伦·斯蒂文斯 Warren Stevens
      摩根·伍德沃德 Morgan Woodward
      Kelly Thordsen Kelly Thordsen
      福特·雷尼 Ford Rainey
      大卫·麦克林 David Macklin
      罗亚尔·达诺 Royal Dano
      约翰·霍伊特 John Hoyt
      埃德加·巴詹南 Edgar Buchanan
      丹佛·派尔 Denver Pyle
      罗伊·巴克罗夫特 Roy Barcroft
      豪利本 Holly Bane
      William Bramley William Bramley
      尼克·丹尼斯 Nick Dennis
      罗伯特·派恩 Robert Pine

◎标  签 西部 | 美国 | 1966 | 无资源 | AudieMurphy | 6.5 | **

◎简  介

  A young, determined sheriff and his posse chase a gang of murderous train robbers, and a kidnapped woman into New [email?protected]www.molikan.com

Video
ID : 1
Format : AVC
Format/Info : Advanced Video Codec
Format profile : [email protected]
Format settings : CABAC / 4 Ref Frames
Format settings, CABAC : Yes
Format settings, Reference frames : 4 frames
Codec ID : V_MPEG4/ISO/AVC
Duration : 1 h 25 min
Bit rate : 12.6 Mb/s
Width : 1 436 pixels
Height : 1 080 pixels
Display aspect ratio : 4:3
Frame rate mode : Constant
Frame rate : 23.976 (24000/1001/189150) FPS
Color space : YUV
Chroma subsampling : 4:2:0
Bit depth : 8 bits
Scan type : Progressive
Bits/(Pixel*Frame) : 0.338
Stream size : 7.52 GiB (97%)
Writing library : x264 core 164 r3065 ae03d92
Encoding settings : cabac=1 / ref=4 / deblock=1:-3:-3 / analyse=0x3:0x133 / me=umh / subme=9 / psy=1 / psy_rd=1.00:0.00 / mixed_ref=1 / me_range=16 / chroma_me=1 / trellis=2 / 8x8dct=1 / cqm=0 / deadzone=21,11 / fast_pskip=0 / chroma_qp_offset=-2 / threads=24 / lookahead_threads=2 / sliced_threads=0 / nr=0 / decimate=1 / interlaced=0 / bluray_compat=0 / constrained_intra=0 / bframes=3 / b_pyramid=2 / b_adapt=2 / b_bias=0 / direct=3 / weightb=1 / open_gop=0 / weightp=2 / keyint=250 / keyint_min=23 / scenecut=40 / intra_refresh=0 / rc_lookahead=60 / rc=crf / mbtree=1 / crf=17.0 / qcomp=0.60 / qpmin=0 / qpmax=69 / qpstep=4 / ip_ratio=1.40 / aq=3:0.60
Default : Yes
Forced : No
Color range : Limited
Matrix coefficients : BT.709

Audio
ID : 2
Format : AC-3
Format/Info : Audio Coding 3
Commercial name : Dolby Digital
Codec ID : A_AC3
Duration : 1 h 25 min
Bit rate mode : Constant
Bit rate : 448 kb/s
Channel(s) : 2 channels
Channel layout : L R
Sampling rate : 48.0 kHz
Frame rate : 31.250 FPS (1536 SPF)
Compression mode : Lossy
Stream size : 275 MiB (3%)
Language : English
Service kind : Complete Main
Default : Yes
Forced : No

Menu
00:00:00.000 : en:00:00:00.000
00:07:29.199 : en:00:07:29.199
00:14:14.103 : en:00:14:14.103
00:20:54.712 : en:00:20:54.712
00:27:45.289 : en:00:27:45.289
00:34:45.542 : en:00:34:45.542
00:41:32.156 : en:00:41:32.156
00:47:53.454 : en:00:47:53.454
00:55:21.985 : en:00:55:21.985
01:02:08.642 : en:01:02:08.642
01:08:41.492 : en:01:08:41.492
01:15:10.172 : en:01:15:10.172





1 个附件 售价 大小 下载 时间

Gunpoint.1966.1080p.BluRay.x264-GUACAMOLE.torrent 0 金币 20.14K 399 次 25天前

#1楼
发帖时间:2021-09-20 12:59:29   |   回复数:0
游客组