fg603603
一代宗师

[更 早] [其他] [恐怖] [BD-720P] 奥拉克之手 The.Hands.of.Orlac.1924.720p.BluRay.x264-USURY 5.70GB

-->

帖子完整标题:奥拉克之手 The.Hands.of.Orlac.1924.720p.BluRay.x264-USURY 5.70GB



◎译  名 奥拉克之手/Die unheimlichen H?nde des Doktor Orlac/The Hands of Orlac/奥莱克之手
◎片  名 Orlacs H?nde
◎年  代 1924
◎产  地 德国,奥地利
◎类  别 恐怖 / 犯罪
◎语  言 德语
◎上映日期 1924-09-24
◎豆瓣评分 8.0/10 from 738 users
◎豆瓣链接 https://movie.douban.com/subject/2363569/
◎片  长 92 分钟
◎导  演 罗伯特·维内 Robert Wiene
◎编  剧 Maurice Renard Maurice Renard
◎主  演 康拉德·韦特 Conrad Veidt
      亚历山德拉·索丽娜 Alexandra Sorina
      弗里茨·科特讷 Fritz Kortner
      Carmen Cartellieri Carmen Cartellieri

◎标  签 德国 | 表现主义 | 默片 | 犯罪 | 1920s | 1924 | 德国电影 | 黑白

◎简  介

  “我的手不是我的手。他将我引向罪恶。我该怎么办...”
  
  这部作品属于Robert Wiene 中期的作品 虽然成名更早,但是这部电影的质量丝毫不逊于众人皆知的《卡里加利博士的小屋》 只是那部电影实在是将表现主义的特点展现的淋漓尽致,从而被奉为经典之中的经典,属于学习表现主义的必修课。

Video
ID : 1
Format : AVC
Format/Info : Advanced Video Codec
Format profile : [email protected]
Format settings : CABAC / 11 Ref Frames
Format settings, CABAC : Yes
Format settings, Reference frames : 11 frames
Codec ID : V_MPEG4/ISO/AVC
Duration : 1 h 34 min
Bit rate : 7 961 kb/s
Width : 962 pixels
Height : 720 pixels
Display aspect ratio : 4:3
Frame rate mode : Constant
Frame rate : 21.978 (22000/1001/189150) FPS
Color space : YUV
Chroma subsampling : 4:2:0
Bit depth : 8 bits
Scan type : Progressive
Bits/(Pixel*Frame) : 0.523
Stream size : 5.25 GiB (92%)
Writing library : x264 core 164 r3065 ae03d92
Encoding settings : cabac=1 / ref=11 / deblock=1:-3:-3 / analyse=0x3:0x133 / me=umh / subme=10 / psy=1 / psy_rd=1.00:0.15 / mixed_ref=1 / me_range=24 / chroma_me=1 / trellis=2 / 8x8dct=1 / cqm=0 / deadzone=21,11 / fast_pskip=1 / chroma_qp_offset=-3 / threads=18 / lookahead_threads=3 / sliced_threads=0 / nr=0 / decimate=1 / interlaced=0 / bluray_compat=0 / constrained_intra=0 / bframes=8 / b_pyramid=2 / b_adapt=2 / b_bias=0 / direct=3 / weightb=1 / open_gop=0 / weightp=2 / keyint=250 / keyint_min=21 / scenecut=40 / intra_refresh=0 / rc_lookahead=60 / rc=crf / mbtree=1 / crf=17.0 / qcomp=0.60 / qpmin=0 / qpmax=69 / qpstep=4 / ip_ratio=1.40 / aq=3:0.50
Language : English
Default : Yes
Forced : No
Color range : Limited
Matrix coefficients : BT.709

Audio #1
ID : 2
Format : FLAC
Format/Info : Free Lossless Audio Codec
Codec ID : A_FLAC
Duration : 1 h 34 min
Bit rate mode : Variable
Bit rate : 577 kb/s
Channel(s) : 2 channels
Channel layout : L R
Sampling rate : 48.0 kHz
Frame rate : 11.719 FPS (4096 SPF)
Bit depth : 16 bits
Compression mode : Lossless
Stream size : 390 MiB (7%)
Writing library : libFLAC 1.2.1 (UTC 2007-09-17)
Language : zxx
Default : Yes
Forced : No

Audio #2
ID : 3
Format : AAC LC
Format/Info : Advanced Audio Codec Low Complexity
Codec ID : A_AAC-2
Duration : 1 h 34 min
Bit rate : 100 kb/s
Channel(s) : 2 channels
Channel layout : L R
Sampling rate : 48.0 kHz
Frame rate : 46.875 FPS (1024 SPF)
Compression mode : Lossy
Delay relative to video : 9 ms
Stream size : 67.7 MiB (1%)
Title : English Commentary by Stephen Jones and Kim Newman
Language : English
Default : No
Forced : No

Text #1
ID : 4
Format : UTF-8
Codec ID : S_TEXT/UTF8
Codec ID/Info : UTF-8 Plain Text
Duration : 1 h 34 min
Bit rate : 10 b/s
Count of elements : 178
Stream size : 6.95 KiB (0%)
Title : English
Language : English
Default : Yes
Forced : Yes

Text #2
ID : 5
Format : PGS
Muxing mode : zlib
Codec ID : S_HDMV/PGS
Codec ID/Info : Picture based subtitle format used on BDs/HD-DVDs
Duration : 1 h 34 min
Bit rate : 2 798 b/s
Count of elements : 304
Stream size : 1.89 MiB (0%)
Title : English
Language : English
Default : No
Forced : No

Menu
00:00:00.000 : en:00:00:00.000
00:11:30.773 : en:00:11:30.773
00:20:48.664 : en:00:20:48.664
00:29:15.921 : en:00:29:15.921
00:40:48.112 : en:00:40:48.112
00:50:10.799 : en:00:50:10.799
01:01:42.365 : en:01:01:42.365
01:11:52.600 : en:01:11:52.600
01:22:18.100 : en:01:22:18.100





1 个附件 售价 大小 下载 时间

The.Hands.of.Orlac.1924.720p.BluRay.x264-USURY.torrent 0 金币 15.00K 350 次 1月前

#1楼
发帖时间:2021-09-20 08:58:38   |   回复数:0
游客组