travismk
一代宗师

[更 早] [其他] [剧情] [WEB-1080P] 一飞冲天 Nadia.1984.1080p.WEBRip.x264-RARBG 1.89GB

-->

帖子完整标题:一飞冲天 Nadia.1984.1080p.WEBRip.x264-RARBG 1.89GB



◎译  名 一飞冲天
◎片  名 Nadia
◎年  代 1984
◎产  地 美国,南斯拉夫,南斯拉夫
◎类  别 剧情 / 运动
◎语  言 英语
◎上映日期 1984-06-11
◎豆瓣评分 /10 from 0 users
◎豆瓣链接 https://movie.douban.com/subject/1306322/
◎片  长 100分钟
◎导  演 阿兰·库克 Alan Cooke
◎主  演 塔利亚·巴尔萨姆 Talia Balsam
      乔纳森·班克斯 Jonathan Banks
      卡丽·斯诺格丽丝 Carrie Snodgress
      Vjenceslav Kapural Vjenceslav Kapural
      康查塔·费雷尔 Conchata Ferrell
      Bozidar Alic Bozidar Alic
      辛提加·阿斯佩格 Cintija Asperger
      Zvonimir Gavranovic Zvonimir Gavranovic
      Johann Carlo Johann Carlo
      博兹达尔·斯密贾尼克 Bozidar Smiljanic

◎简  介

  暂无相关剧情介绍

Video
ID : 1
Format : AVC
Format/Info : Advanced Video Codec
Format profile : [email protected]
Format settings : CABAC / 4 Ref Frames
Format settings, CABAC : Yes
Format settings, Reference frames : 4 frames
Codec ID : avc1
Codec ID/Info : Advanced Video Coding
Duration : 1 h 39 min
Source duration : 1 h 39 min
Bit rate : 2 500 kb/s
Width : 1 440 pixels
Height : 1 080 pixels
Display aspect ratio : 4:3
Frame rate mode : Constant
Frame rate : 23.976 (23976/1000/189150) FPS
Color space : YUV
Chroma subsampling : 4:2:0
Bit depth : 8 bits
Scan type : Progressive
Bits/(Pixel*Frame) : 0.067
Stream size : 1.73 GiB (92%)
Source stream size : 1.73 GiB (92%)
Writing library : x264 core 152 r2851M ba24899
Encoding settings : cabac=1 / ref=4 / deblock=1:-1:-1 / analyse=0x3:0x113 / me=umh / subme=9 / psy=1 / psy_rd=1.00:0.15 / mixed_ref=1 / me_range=24 / chroma_me=1 / trellis=2 / 8x8dct=1 / cqm=0 / deadzone=21,11 / fast_pskip=1 / chroma_qp_offset=-3 / threads=16 / lookahead_threads=4 / sliced_threads=0 / nr=0 / decimate=1 / interlaced=0 / bluray_compat=0 / constrained_intra=0 / bframes=3 / b_pyramid=2 / b_adapt=2 / b_bias=0 / direct=3 / weightb=1 / open_gop=0 / weightp=2 / keyint=250 / keyint_min=25 / scenecut=40 / intra_refresh=0 / rc_lookahead=50 / rc=2pass / mbtree=1 / bitrate=2500 / ratetol=1.0 / qcomp=0.60 / qpmin=0 / qpmax=69 / qpstep=4 / cplxblur=20.0 / qblur=0.5 / vbv_maxrate=31250 / vbv_bufsize=31250 / nal_hrd=none / filler=0 / ip_ratio=1.40 / aq=3:1.00
Encoded date : UTC 2021-09-18 22:06:00
Tagged date : UTC 2021-09-18 22:06:00
Codec configuration box : avcC

Audio
ID : 2
Format : AAC LC
Format/Info : Advanced Audio Codec Low Complexity
Codec ID : mp4a-40-2
Duration : 1 h 39 min
Bit rate mode : Constant
Bit rate : 224 kb/s
Channel(s) : 2 channels
Channel layout : L R
Sampling rate : 48.0 kHz
Frame rate : 46.875 FPS (1024 SPF)
Compression mode : Lossy
Stream size : 159 MiB (8%)
Language : English
Default : Yes
Alternate group : 1
Encoded date : UTC 2021-09-18 22:06:00
Tagged date : UTC 2021-09-18 22:06:00





1 个附件 售价 大小 下载 时间

Nadia.1984.1080p.WEBRip.x264-RARBG.torrent 0 金币 19.60K 448 次 26天前

#1楼
发帖时间:2021-09-19 15:49:41   |   回复数:0
游客组