travismk
一代宗师

[更 早] [欧美] [剧情] [BD-4K] 出租车司机/出租汽车司机 Taxi.Driver.1976.2160p.BluRay.x264.8bit.SDR.DTS-HD.MA.5.1-SWTYBLZ 5

-->

帖子完整标题:出租车司机/出租汽车司机 Taxi.Driver.1976.2160p.BluRay.x264.8bit.SDR.DTS-HD.MA.5.1-SWTYBLZ 57.13GB



◎译  名 出租车司机/出租汽车司机/的士司机(港)/计程车司机(台)
◎片  名 Taxi Driver
◎年  代 1976
◎产  地 美国
◎类  别 剧情 / 犯罪
◎语  言 英语,西班牙语
◎上映日期 1976-02-08(美国)
◎豆瓣评分 8.5/10 from 172937 users
◎豆瓣链接 https://movie.douban.com/subject/1292222/
◎片  长 113分钟
◎导  演 马丁·斯科塞斯 Martin Scorsese
◎编  剧 保罗·施拉德 Paul Schrader
◎主  演 罗伯特·德尼罗 Robert De Niro
      朱迪·福斯特 Jodie Foster
      斯碧尔·谢波德 Cybill Shepherd
      艾伯特·布鲁克斯 Albert Brooks
      哈威·凯特尔 Harvey Keitel
      戴安娜·阿伯特 Diahnne Abbott
      维克多·阿尔果 Victor Argo
      吉诺·阿迪托 Gino Ardito
      彼得·博伊尔 Peter Boyle
      布伦达·迪克森 Brenda Dickson
      马丁·斯科塞斯 Martin Scorsese
      玛丽-帕特·格林 Mary-Pat Green

◎标  签 美国 | 经典 | 暴力 | 剧情 | 犯罪 | 人性 | 1976 | 黑色

◎简  介

  特拉维斯(罗伯特·德尼罗 Robert De Niro 饰)从越战中退伍回来后一直在纽约以开出租车为生。战争后的他多少有些失落,加上开出租车目睹了纽约夜幕下的种种罪恶,令他变得愤世嫉俗、痛恨社会。在追求总统候选人帕兰坦竞选办公室的秘书贝西失败后,特拉维斯决定去刺杀帕兰坦 以证明自己。
  
  在准备刺杀行动的过程中,特拉维斯遇上了被逼卖淫的雏妓艾瑞斯。在企图救艾瑞斯出火坑未果后,特拉维斯手持武器闯进淫窝,将里面的一干人等通通干掉了!本以为即将收到法律的惩罚,然而媒体却将特拉维斯描述成了一个拯救少女的英雄……

◎获奖情况

  第49届奥斯卡金像奖 ?(1977)
  最佳影片(提名) 朱莉娅·菲利普斯?/?迈克尔·菲利普斯
  最佳男主角(提名) 罗伯特·德尼罗
  最佳女配角(提名) 朱迪·福斯特
  最佳原创配乐(提名) 伯纳德·赫尔曼
  
  第29届戛纳电影节 ?(1976)
  主竞赛单元金棕榈奖 马丁·斯科塞斯
  
  第1届报知映画赏 ?(1976)
  海外作品奖 马丁·斯科塞斯

Video
ID : 1
Format : AVC
Format/Info : Advanced Video Codec
Format profile : [email protected]
Format settings : CABAC / 5 Ref Frames
Format settings, CABAC : Yes
Format settings, Reference frames : 5 frames
Codec ID : V_MPEG4/ISO/AVC
Duration : 1 h 53 min
Bit rate : 68.4 Mb/s
Width : 3 840 pixels
Height : 2 076 pixels
Display aspect ratio : 1.85:1
Frame rate mode : Constant
Frame rate : 23.976 (24000/1001/189150) FPS
Color space : YUV
Chroma subsampling : 4:2:0
Bit depth : 8 bits
Scan type : Progressive
Bits/(Pixel*Frame) : 0.358
Stream size : 54.4 GiB (96%)
Writing library : x264 core 157 r2935 545de2f
Encoding settings : cabac=1 / ref=5 / deblock=1:-1:-1 / analyse=0x3:0x113 / me=umh / subme=10 / psy=1 / psy_rd=1.00:0.15 / mixed_ref=1 / me_range=48 / chroma_me=1 / trellis=2 / 8x8dct=1 / cqm=0 / deadzone=21,11 / fast_pskip=1 / chroma_qp_offset=-3 / threads=48 / lookahead_threads=4 / sliced_threads=0 / nr=0 / decimate=0 / interlaced=0 / bluray_compat=0 / constrained_intra=0 / bframes=3 / b_pyramid=2 / b_adapt=2 / b_bias=0 / direct=3 / weightb=1 / open_gop=0 / weightp=2 / keyint=250 / keyint_min=23 / scenecut=40 / intra_refresh=0 / rc_lookahead=50 / rc=crf / mbtree=1 / crf=22.0 / qcomp=0.60 / qpmin=0 / qpmax=69 / qpstep=4 / ip_ratio=1.40 / aq=1:1.00
Default : Yes
Forced : No

Audio #1
ID : 2
ID in the original source medium : 4352 (0x1100)
Format : DTS XLL
Format/Info : Digital Theater Systems
Commercial name : DTS-HD Master Audio
Codec ID : A_DTS
Duration : 1 h 53 min
Bit rate mode : Variable
Bit rate : 2 143 kb/s
Channel(s) : 6 channels
Channel layout : C L R Ls Rs LFE
Sampling rate : 48.0 kHz
Frame rate : 93.750 FPS (512 SPF)
Bit depth : 16 bits
Compression mode : Lossless
Stream size : 1.70 GiB (3%)
Title : DTS-HD MA 5.1
Language : English
Default : Yes
Forced : No
Original source medium : Blu-ray

Audio #2
ID : 3
Format : AC-3
Format/Info : Audio Coding 3
Commercial name : Dolby Digital
Codec ID : A_AC3
Duration : 1 h 53 min
Bit rate mode : Constant
Bit rate : 640 kb/s
Channel(s) : 6 channels
Channel layout : L R C LFE Ls Rs
Sampling rate : 48.0 kHz
Frame rate : 31.250 FPS (1536 SPF)
Compression mode : Lossy
Stream size : 521 MiB (1%)
Title : DD 5.1
Language : English
Service kind : Complete Main
Default : No
Forced : No

Text #1
ID : 4
Format : UTF-8
Codec ID : S_TEXT/UTF8
Codec ID/Info : UTF-8 Plain Text
Duration : 1 h 48 min
Bit rate : 54 b/s
Count of elements : 1220
Stream size : 43.1 KiB (0%)
Title : SRT
Language : English
Default : No
Forced : No

Text #2
ID : 5
ID in the original source medium : 4768 (0x12A0)
Format : PGS
Muxing mode : zlib
Codec ID : S_HDMV/PGS
Codec ID/Info : Picture based subtitle format used on BDs/HD-DVDs
Duration : 1 h 50 min
Bit rate : 34.3 kb/s
Count of elements : 2695
Stream size : 27.0 MiB (0%)
Title : SDH US
Language : English
Default : No
Forced : No
Original source medium : Blu-ray

Text #3
ID : 6
ID in the original source medium : 4769 (0x12A1)
Format : PGS
Muxing mode : zlib
Codec ID : S_HDMV/PGS
Codec ID/Info : Picture based subtitle format used on BDs/HD-DVDs
Duration : 1 h 48 min
Bit rate : 31.7 kb/s
Count of elements : 2451
Stream size : 24.5 MiB (0%)
Title : Full US
Language : English
Default : No
Forced : No
Original source medium : Blu-ray

Text #4
ID : 7
ID in the original source medium : 4770 (0x12A2)
Format : PGS
Muxing mode : zlib
Codec ID : S_HDMV/PGS
Codec ID/Info : Picture based subtitle format used on BDs/HD-DVDs
Duration : 1 h 50 min
Bit rate : 34.3 kb/s
Count of elements : 2695
Stream size : 27.0 MiB (0%)
Title : SDH UK
Language : English
Default : No
Forced : No
Original source medium : Blu-ray

Text #5
ID : 8
ID in the original source medium : 4771 (0x12A3)
Format : PGS
Muxing mode : zlib
Codec ID : S_HDMV/PGS
Codec ID/Info : Picture based subtitle format used on BDs/HD-DVDs
Duration : 1 h 48 min
Bit rate : 31.7 kb/s
Count of elements : 2451
Stream size : 24.5 MiB (0%)
Title : Full UK
Language : English
Default : No
Forced : No
Original source medium : Blu-ray

Text #6
ID : 9
ID in the original source medium : 4772 (0x12A4)
Format : PGS
Muxing mode : zlib
Codec ID : S_HDMV/PGS
Codec ID/Info : Picture based subtitle format used on BDs/HD-DVDs
Duration : 1 h 47 min
Bit rate : 16.3 kb/s
Count of elements : 2425
Stream size : 12.6 MiB (0%)
Language : Arabic
Default : No
Forced : No
Original source medium : Blu-ray

Text #7
ID : 10
ID in the original source medium : 4773 (0x12A5)
Format : PGS
Muxing mode : zlib
Codec ID : S_HDMV/PGS
Codec ID/Info : Picture based subtitle format used on BDs/HD-DVDs
Duration : 1 h 49 min
Bit rate : 28.6 kb/s
Count of elements : 2511
Stream size : 22.5 MiB (0%)
Language : Bulgarian
Default : No
Forced : No
Original source medium : Blu-ray

Text #8
ID : 11
ID in the original source medium : 4774 (0x12A6)
Format : PGS
Muxing mode : zlib
Codec ID : S_HDMV/PGS
Codec ID/Info : Picture based subtitle format used on BDs/HD-DVDs
Duration : 1 h 51 min
Bit rate : 27.9 kb/s
Count of elements : 2511
Stream size : 22.2 MiB (0%)
Language : Chinese
Default : No
Forced : No
Original source medium : Blu-ray

Text #9
ID : 12
ID in the original source medium : 4775 (0x12A7)
Format : PGS
Muxing mode : zlib
Codec ID : S_HDMV/PGS
Codec ID/Info : Picture based subtitle format used on BDs/HD-DVDs
Duration : 1 h 51 min
Bit rate : 27.2 kb/s
Count of elements : 2511
Stream size : 21.7 MiB (0%)
Language : Chinese
Default : No
Forced : No
Original source medium : Blu-ray

Text #10
ID : 13
ID in the original source medium : 4776 (0x12A8)
Format : PGS
Muxing mode : zlib
Codec ID : S_HDMV/PGS
Codec ID/Info : Picture based subtitle format used on BDs/HD-DVDs
Duration : 1 h 51 min
Bit rate : 26.9 kb/s
Count of elements : 2501
Stream size : 21.4 MiB (0%)
Language : Croatian
Default : No
Forced : No
Original source medium : Blu-ray

Text #11
ID : 14
ID in the original source medium : 4777 (0x12A9)
Format : PGS
Muxing mode : zlib
Codec ID : S_HDMV/PGS
Codec ID/Info : Picture based subtitle format used on BDs/HD-DVDs
Duration : 1 h 48 min
Bit rate : 25.9 kb/s
Count of elements : 2467
Stream size : 20.0 MiB (0%)
Language : Czech
Default : No
Forced : No
Original source medium : Blu-ray

Text #12
ID : 15
ID in the original source medium : 4778 (0x12AA)
Format : PGS
Muxing mode : zlib
Codec ID : S_HDMV/PGS
Codec ID/Info : Picture based subtitle format used on BDs/HD-DVDs
Duration : 1 h 47 min
Bit rate : 28.0 kb/s
Count of elements : 2355
Stream size : 21.7 MiB (0%)
Language : Dutch
Default : No
Forced : No
Original source medium : Blu-ray

Text #13
ID : 16
ID in the original source medium : 4779 (0x12AB)
Format : PGS
Muxing mode : zlib
Codec ID : S_HDMV/PGS
Codec ID/Info : Picture based subtitle format used on BDs/HD-DVDs
Duration : 1 h 48 min
Bit rate : 25.7 kb/s
Count of elements : 1763
Stream size : 19.9 MiB (0%)
Language : Finnish
Default : No
Forced : No
Original source medium : Blu-ray

Text #14
ID : 17
ID in the original source medium : 4780 (0x12AC)
Format : PGS
Muxing mode : zlib
Codec ID : S_HDMV/PGS
Codec ID/Info : Picture based subtitle format used on BDs/HD-DVDs
Duration : 1 h 51 min
Bit rate : 27.5 kb/s
Count of elements : 2424
Stream size : 21.9 MiB (0%)
Language : French
Default : No
Forced : No
Original source medium : Blu-ray

Text #15
ID : 18
ID in the original source medium : 4781 (0x12AD)
Format : PGS
Muxing mode : zlib
Codec ID : S_HDMV/PGS
Codec ID/Info : Picture based subtitle format used on BDs/HD-DVDs
Duration : 1 h 48 min
Bit rate : 32.3 kb/s
Count of elements : 2485
Stream size : 25.0 MiB (0%)
Language : German
Default : No
Forced : No
Original source medium : Blu-ray

Text #16
ID : 19
ID in the original source medium : 4782 (0x12AE)
Format : PGS
Muxing mode : zlib
Codec ID : S_HDMV/PGS
Codec ID/Info : Picture based subtitle format used on BDs/HD-DVDs
Duration : 1 h 48 min
Bit rate : 29.4 kb/s
Count of elements : 2469
Stream size : 22.7 MiB (0%)
Language : Greek
Default : No
Forced : No
Original source medium : Blu-ray

Text #17
ID : 20
ID in the original source medium : 4783 (0x12AF)
Format : PGS
Muxing mode : zlib
Codec ID : S_HDMV/PGS
Codec ID/Info : Picture based subtitle format used on BDs/HD-DVDs
Duration : 1 h 47 min
Bit rate : 22.1 kb/s
Count of elements : 2435
Stream size : 17.1 MiB (0%)
Language : Hebrew
Default : No
Forced : No
Original source medium : Blu-ray

Text #18
ID : 21
ID in the original source medium : 4784 (0x12B0)
Format : PGS
Muxing mode : zlib
Codec ID : S_HDMV/PGS
Codec ID/Info : Picture based subtitle format used on BDs/HD-DVDs
Duration : 1 h 48 min
Bit rate : 26.3 kb/s
Count of elements : 2447
Stream size : 20.3 MiB (0%)
Language : Hungarian
Default : No
Forced : No
Original source medium : Blu-ray

Text #19
ID : 22
ID in the original source medium : 4785 (0x12B1)
Format : PGS
Muxing mode : zlib
Codec ID : S_HDMV/PGS
Codec ID/Info : Picture based subtitle format used on BDs/HD-DVDs
Duration : 1 h 48 min
Bit rate : 29.6 kb/s
Count of elements : 2435
Stream size : 22.9 MiB (0%)
Language : Icelandic
Default : No
Forced : No
Original source medium : Blu-ray

Text #20
ID : 23
ID in the original source medium : 4786 (0x12B2)
Format : PGS
Muxing mode : zlib
Codec ID : S_HDMV/PGS
Codec ID/Info : Picture based subtitle format used on BDs/HD-DVDs
Duration : 1 h 48 min
Bit rate : 29.7 kb/s
Count of elements : 2468
Stream size : 22.9 MiB (0%)
Language : Italian
Default : No
Forced : No
Original source medium : Blu-ray

Text #21
ID : 24
ID in the original source medium : 4787 (0x12B3)
Format : PGS
Muxing mode : zlib
Codec ID : S_HDMV/PGS
Codec ID/Info : Picture based subtitle format used on BDs/HD-DVDs
Duration : 1 h 51 min
Bit rate : 21.2 kb/s
Count of elements : 2206
Stream size : 16.9 MiB (0%)
Language : Japanese
Default : No
Forced : No
Original source medium : Blu-ray

Text #22
ID : 25
ID in the original source medium : 4788 (0x12B4)
Format : PGS
Muxing mode : zlib
Codec ID : S_HDMV/PGS
Codec ID/Info : Picture based subtitle format used on BDs/HD-DVDs
Duration : 1 h 49 min
Bit rate : 21.2 kb/s
Count of elements : 1962
Stream size : 16.6 MiB (0%)
Language : Korean
Default : No
Forced : No
Original source medium : Blu-ray

Text #23
ID : 26
ID in the original source medium : 4789 (0x12B5)
Format : PGS
Muxing mode : zlib
Codec ID : S_HDMV/PGS
Codec ID/Info : Picture based subtitle format used on BDs/HD-DVDs
Duration : 1 h 48 min
Bit rate : 23.9 kb/s
Count of elements : 1832
Stream size : 18.4 MiB (0%)
Language : Norwegian
Default : No
Forced : No
Original source medium : Blu-ray

Text #24
ID : 27
ID in the original source medium : 4790 (0x12B6)
Format : PGS
Muxing mode : zlib
Codec ID : S_HDMV/PGS
Codec ID/Info : Picture based subtitle format used on BDs/HD-DVDs
Duration : 1 h 48 min
Bit rate : 24.9 kb/s
Count of elements : 2413
Stream size : 19.2 MiB (0%)
Language : Polish
Default : No
Forced : No
Original source medium : Blu-ray

Text #25
ID : 28
ID in the original source medium : 4791 (0x12B7)
Format : PGS
Muxing mode : zlib
Codec ID : S_HDMV/PGS
Codec ID/Info : Picture based subtitle format used on BDs/HD-DVDs
Duration : 1 h 51 min
Bit rate : 27.8 kb/s
Count of elements : 2469
Stream size : 22.2 MiB (0%)
Language : Spanish
Default : No
Forced : No
Original source medium : Blu-ray

Text #26
ID : 29
ID in the original source medium : 4792 (0x12B8)
Format : PGS
Muxing mode : zlib
Codec ID : S_HDMV/PGS
Codec ID/Info : Picture based subtitle format used on BDs/HD-DVDs
Duration : 1 h 51 min
Bit rate : 27.1 kb/s
Count of elements : 2516
Stream size : 21.6 MiB (0%)
Language : Spanish
Default : No
Forced : No
Original source medium : Blu-ray

Text #27
ID : 30
ID in the original source medium : 4793 (0x12B9)
Format : PGS
Muxing mode : zlib
Codec ID : S_HDMV/PGS
Codec ID/Info : Picture based subtitle format used on BDs/HD-DVDs
Duration : 1 h 51 min
Bit rate : 23.9 kb/s
Count of elements : 1870
Stream size : 19.0 MiB (0%)
Language : Swedish
Default : No
Forced : No
Original source medium : Blu-ray

Text #28
ID : 31
ID in the original source medium : 4794 (0x12BA)
Format : PGS
Muxing mode : zlib
Codec ID : S_HDMV/PGS
Codec ID/Info : Picture based subtitle format used on BDs/HD-DVDs
Duration : 1 h 51 min
Bit rate : 27.6 kb/s
Count of elements : 2511
Stream size : 21.9 MiB (0%)
Language : Thai
Default : No
Forced : No
Original source medium : Blu-ray

Text #29
ID : 32
ID in the original source medium : 4795 (0x12BB)
Format : PGS
Muxing mode : zlib
Codec ID : S_HDMV/PGS
Codec ID/Info : Picture based subtitle format used on BDs/HD-DVDs
Duration : 1 h 47 min
Bit rate : 29.4 kb/s
Count of elements : 2421
Stream size : 22.7 MiB (0%)
Language : Turkish
Default : No
Forced : No
Original source medium : Blu-ray

Menu
00:00:00.000 : Chapter 01
00:10:59.033 : Chapter 02
00:20:05.037 : Chapter 03
00:28:20.782 : Chapter 04
00:33:12.198 : Chapter 05
00:40:11.325 : Chapter 06
00:44:03.641 : Chapter 07
00:51:42.140 : Chapter 08
01:01:10.500 : Chapter 09
01:08:11.754 : Chapter 10
01:14:49.026 : Chapter 11
01:24:46.039 : Chapter 12
01:29:42.668 : Chapter 13
01:34:11.979 : Chapter 14
01:38:02.418 : Chapter 15
01:45:57.893 : Chapter 16





1 个附件 售价 大小 下载 时间

Taxi.Driver.1976.2160p.BluRay.x264.8bit.SDR.DTS-HD.MA.5.1-SWTYBLZ.torrent 0 金币 72.13K 1470 次 26天前

#1楼
发帖时间:2021-09-19 15:30:44   |   回复数:0
游客组