squallzhao
武林盟主

[2009] [韩国] [喜剧] [WEB-1080P] 清潭菩萨 Fortune.Salon.2009.KOREAN.ENSUBBED.1080p.AMZN.WEBRip.DDP2.0.x264-tG1R0 7.06

-->

帖子完整标题:清潭菩萨 Fortune.Salon.2009.KOREAN.ENSUBBED.1080p.AMZN.WEBRip.DDP2.0.x264-tG1R0 7.06GB



◎译  名 清潭菩萨/Fortune Salon
◎片  名 ????
◎年  代 2009
◎产  地 韩国
◎类  别 喜剧 / 爱情
◎语  言 韩语
◎上映日期 2009-11-11(韩国)
◎豆瓣评分 6.2/10 from 1365 users
◎豆瓣链接 https://movie.douban.com/subject/4133237/
◎片  长 119分钟
◎导  演 金镇英 Jin-yeong Kim
◎编  剧 金志永 Ji-young Kim
◎主  演 任昌丁 Chang-jung Lim
      朴艺珍 Yeh-jin Park
      玄英 Yeong Hyeon
      金秀美 Su-mi Kim
      徐英姬 Yeong-hie Seo
      徐柔贞 Yu-jeong Seo
      李浚赫 Jun-hyuk Lee
      全敏书 Min-seo Jeon
      金基天 Ki-cheon Kim
      安洪镇 Ahn Hong-jin
      吉海妍 Hae-yeon Gil
      金熙元 Hae-won Kim

◎标  签 韩国 | 喜剧 | 爱情 | 2009 | 搞笑 | 韩影 | 占卜 | 剧情

◎简  介

  朴艺珍扮演的酷爱算卦的女人来自一个巫师家庭,与任昌丁扮演的男友上演了一段令人啼笑皆非的爱情喜剧。

Video
ID : 1
Format : AVC
Format/Info : Advanced Video Codec
Format profile : [email protected]
Format settings : CABAC / 4 Ref Frames
Format settings, CABAC : Yes
Format settings, Reference frames : 4 frames
Codec ID : V_MPEG4/ISO/AVC
Duration : 1 h 58 min
Bit rate mode : Constant
Bit rate : 8 272 kb/s
Nominal bit rate : 10 000 kb/s
Width : 1 920 pixels
Height : 1 080 pixels
Display aspect ratio : 16:9
Frame rate mode : Constant
Frame rate : 24.000 FPS
Color space : YUV
Chroma subsampling : 4:2:0
Bit depth : 8 bits
Scan type : Progressive
Bits/(Pixel*Frame) : 0.166
Stream size : 6.87 GiB (97%)
Title : Cheongdam bosal (2009) [Amazon US] - tt1872798
Language : Korean
Default : Yes
Forced : No
Color range : Limited
Color primaries : BT.709
Transfer characteristics : BT.709
Matrix coefficients : BT.709

Audio
ID : 2
Format : E-AC-3
Format/Info : Enhanced AC-3
Commercial name : Dolby Digital Plus
Codec ID : A_EAC3
Duration : 1 h 58 min
Bit rate mode : Constant
Bit rate : 224 kb/s
Channel(s) : 2 channels
Channel layout : L R
Sampling rate : 48.0 kHz
Frame rate : 31.250 FPS (1536 SPF)
Compression mode : Lossy
Stream size : 190 MiB (3%)
Language : Korean
Service kind : Complete Main
Default : Yes
Forced : No

Text
ID : 3
Format : UTF-8
Codec ID : S_TEXT/UTF8
Codec ID/Info : UTF-8 Plain Text
Duration : 1 h 56 min
Bit rate : 49 b/s
Count of elements : 1382
Stream size : 41.9 KiB (0%)
Language : English
Default : No
Forced : No





1 个附件 售价 大小 下载 时间

Fortune.Salon.2009.KOREAN.ENSUBBED.1080p.AMZN.WEBRip.DDP2.0.x264-tG1R0.torrent 0 金币 35.93K 1624 次 9天前

#1楼
发帖时间:2021-06-11 23:40:41   |   回复数:0
游客组