squallzhao
武林盟主

[2017] [其他] [其他] [WEB-1080P] 夏日之炎 That.Summer.2017.1080p.AMZN.WEBRip.DDP2.0.x264-Candial 6.77GB

-->

帖子完整标题:夏日之炎 That.Summer.2017.1080p.AMZN.WEBRip.DDP2.0.x264-Candial 6.77GB



◎译  名 夏日之炎
◎片  名 That Summer
◎年  代 2017
◎产  地 瑞典,美国,丹麦
◎类  别 纪录片
◎语  言 英语
◎上映日期 2017-09-01(特柳赖德电影节)
◎豆瓣评分 /10 from 0 users
◎豆瓣链接 https://movie.douban.com/subject/27609181/
◎片  长 77分钟
◎导  演 格兰·奥尔森 G?ran Olsson
◎主  演 彼得·比尔德 Peter Beard
      保罗·莫里西 Paul Morrissey
      李·洛兹维尔 Lee Radziwill
      安迪·沃霍尔 Andy Warhol

◎标  签 纪录片 | 美国 | Berlinale2018 | 2017 | 2010s | P-BerlinB入围全景单元 | Documentary | DDDream

◎简  介

  格兰·奥尔森是一名瑞典纪录片导演及制片人。在奥尔森的影片中,后殖民主义、种族问题以及暴力元素常常是他最为关注的话题。在近几年中,他以曾获第27届圣丹斯电影节——世界电影单元纪录片剪辑奖的《1967-1975黑权运动呐声集》和纪录片《暴力相关》为大家所熟知。《That Summer》是奥尔森第二次参选柏林电影节的影片,该片围绕摄影艺术家Peter Beard和Lee Radziwill展开,重新展现了一系列关于Beard和他的家人及好友在1972年之夏的珍贵画面。这一次,脱离了黑色元素的奥尔森或许能够在本次柏林影展中收获到不一样的关注。

Video
ID : 1
Format : AVC
Format/Info : Advanced Video Codec
Format profile : [email protected]
Format settings : CABAC / 4 Ref Frames
Format settings, CABAC : Yes
Format settings, Reference frames : 4 frames
Codec ID : V_MPEG4/ISO/AVC
Duration : 1 h 20 min
Bit rate : 11.9 Mb/s
Width : 1 920 pixels
Height : 1 080 pixels
Display aspect ratio : 16:9
Frame rate mode : Constant
Frame rate : 24.000 FPS
Color space : YUV
Chroma subsampling : 4:2:0
Bit depth : 8 bits
Scan type : Progressive
Bits/(Pixel*Frame) : 0.238
Stream size : 6.64 GiB (98%)
Language : English
Default : Yes
Forced : No
Color range : Limited
Color primaries : BT.709
Transfer characteristics : BT.709
Matrix coefficients : BT.709

Audio
ID : 2
Format : E-AC-3
Format/Info : Enhanced AC-3
Commercial name : Dolby Digital Plus
Codec ID : A_EAC3
Duration : 1 h 20 min
Bit rate mode : Constant
Bit rate : 224 kb/s
Channel(s) : 2 channels
Channel layout : L R
Sampling rate : 48.0 kHz
Frame rate : 31.250 FPS (1536 SPF)
Compression mode : Lossy
Stream size : 128 MiB (2%)
Language : English
Service kind : Complete Main
Default : Yes
Forced : No

Text
ID : 3
Format : UTF-8
Codec ID : S_TEXT/UTF8
Codec ID/Info : UTF-8 Plain Text
Duration : 1 h 19 min
Bit rate : 93 b/s
Count of elements : 1627
Stream size : 54.6 KiB (0%)
Language : English
Default : Yes
Forced : No





1 个附件 售价 大小 下载 时间

That.Summer.2017.1080p.AMZN.WEBRip.DDP2.0.x264-Candial.torrent 0 金币 34.45K 196 次 9天前

#1楼
发帖时间:2021-06-11 23:28:37   |   回复数:0
游客组