squallzhao
武林盟主

[2016] [欧美] [剧情] [WEB-1080P] 狼性/孤注一掷 Wolves.2016.1080p.AMZN.WEBRip.DDP5.1.x264-Candial 3.95GB

-->

帖子完整标题:狼性/孤注一掷 Wolves.2016.1080p.AMZN.WEBRip.DDP5.1.x264-Candial 3.95GB



◎译  名 狼性/孤注一掷(台)/猛狼之队
◎片  名 Wolves
◎年  代 2016
◎产  地 美国
◎类  别 剧情
◎语  言 英语
◎上映日期 2016-04-15(翠贝卡电影节) / 2017-03-03(美国)
◎豆瓣评分 /10 from 0 users
◎豆瓣链接 https://movie.douban.com/subject/26743446/
◎片  长 109分钟
◎导  演 巴特·弗伦德里希 Bart Freundlich
◎编  剧 巴特·弗伦德里希 Bart Freundlich
◎主  演 迈克尔·珊农 Michael Shannon
      卡拉·古奇诺 Carla Gugino
      泰勒·约翰·史密斯 Taylor John Smith
      莎姬·贝兹 Zazie Beetz
      杰西卡·罗德 Jessica Rothe
      杰克·崔 Jake Choi
      克里斯·鲍尔 Chris Bauer
      Christopher Meyer
      Matthew Porretta
      丹尼·霍奇 Danny Hoch
      张欣迪 Cindy Cheung
      诺厄·勒·赫罗斯 Noah Le Gros
      吉普森·弗雷泽 Gibson Frazier
      王熙韧 Xiren Wang
      John Michael Bolger
      理查德·科恩克 Richard Kohnke

◎标  签 运动 | 美国 | 青春 | 2016 | 剧情 | 生活 | 篮球 | 北美英语片

◎简  介

  高中明星籃球員安東尼是師長眼中的好學生、隊友眼中的好隊長,他的夢想是獲得康乃爾大學獎學金並加入籃球校隊,但開朗和善的他心中總有個揮之不去的陰影:好賭成性的父親(麥可夏儂)。一再積欠賭債的父親不惜賭上安東尼的人生,只為在賭桌上翻盤,讓安東尼不得不鼓起力量,為了未來與夢想奮力一戰!

Video
ID : 1
Format : AVC
Format/Info : Advanced Video Codec
Format profile : [email protected]
Format settings : CABAC / 4 Ref Frames
Format settings, CABAC : Yes
Format settings, Reference frames : 4 frames
Codec ID : V_MPEG4/ISO/AVC
Duration : 1 h 48 min
Bit rate mode : Variable
Bit rate : 4 556 kb/s
Maximum bit rate : 15.0 Mb/s
Width : 1 920 pixels
Height : 800 pixels
Display aspect ratio : 2.40:1
Frame rate mode : Constant
Frame rate : 23.976 (24000/1001/189150) FPS
Color space : YUV
Chroma subsampling : 4:2:0
Bit depth : 8 bits
Scan type : Progressive
Bits/(Pixel*Frame) : 0.124
Stream size : 3.47 GiB (88%)
Language : English
Default : Yes
Forced : No
Color range : Limited
Color primaries : BT.709
Transfer characteristics : BT.709
Matrix coefficients : BT.709

Audio
ID : 2
Format : E-AC-3
Format/Info : Enhanced AC-3
Commercial name : Dolby Digital Plus
Codec ID : A_EAC3
Duration : 1 h 48 min
Bit rate mode : Constant
Bit rate : 640 kb/s
Channel(s) : 6 channels
Channel layout : L R C LFE Ls Rs
Sampling rate : 48.0 kHz
Frame rate : 31.250 FPS (1536 SPF)
Compression mode : Lossy
Stream size : 499 MiB (12%)
Language : English
Service kind : Complete Main
Default : Yes
Forced : No

Text
ID : 3
Format : UTF-8
Codec ID : S_TEXT/UTF8
Codec ID/Info : UTF-8 Plain Text
Duration : 1 h 48 min
Bit rate : 67 b/s
Count of elements : 1909
Stream size : 53.7 KiB (0%)
Language : English
Default : Yes
Forced : No





1 个附件 售价 大小 下载 时间

Wolves.2016.1080p.AMZN.WEBRip.DDP5.1.x264-Candial.torrent 0 金币 40.16K 238 次 9天前

#1楼
发帖时间:2021-06-11 23:24:20   |   回复数:0
游客组