squallzhao
武林盟主

[更 早] [欧美] [剧情] [WEB-1080P] 舞动夏令营/夏日罗罗挛 Camp.2003.1080p.AMZN.WEBRip.DDP5.1.x264-Candial 9.39GB

-->

帖子完整标题:舞动夏令营/夏日罗罗挛 Camp.2003.1080p.AMZN.WEBRip.DDP5.1.x264-Candial 9.39GB



◎译  名 舞动夏令营/夏日罗罗挛
◎片  名 Camp
◎年  代 2003
◎产  地 美国
◎类  别 剧情 / 喜剧 / 歌舞
◎语  言 英语,西班牙语
◎上映日期 2003-12-13
◎豆瓣评分 5.8/10 from 1393 users
◎豆瓣链接 https://movie.douban.com/subject/1304550/
◎片  长 114 分钟
◎导  演 托德·格拉夫 Todd Graff
◎编  剧 托德·格拉夫 Todd Graff
◎主  演 Joanna Chilcoat
      Brad Simmons
      安娜·肯德里克 Anna Kendrick
      史蒂芬·桑德海姆 Stephen Sondheim
      丹尼尔·莱特勒 Daniel Letterle
      Rock Rose
      Leslie Frye
      路易斯·森坦尼 Louis Centanni
      罗宾·德·齐泽斯 Robin de Jesus
      Caitlin Van Zandt
      萨莎·艾伦 Sasha Allen
      Vince Rimoldi
      Kahiry Bess
      艾兰娜 Alana Allen

◎标  签 青春 | 美国 | 歌舞片 | 喜剧 | AnnaKendrick | 歌舞 | 美国电影 | 同志

◎简  介

  故事发生在一处专为年轻歌手、舞者及演员举办的夏令营的地方,主办人伯特亨利曾是百老汇当红作曲家,却在遭遇连串挫折后隐退,如今遇上了这群天真好动的年轻人,令他重新萌发振作念头,准备好好训练他们正式登上舞台。

Video
ID : 1
Format : AVC
Format/Info : Advanced Video Codec
Format profile : [email protected]
Format settings : CABAC / 4 Ref Frames
Format settings, CABAC : Yes
Format settings, Reference frames : 4 frames
Codec ID : V_MPEG4/ISO/AVC
Duration : 1 h 49 min
Bit rate : 11.6 Mb/s
Width : 1 920 pixels
Height : 1 080 pixels
Display aspect ratio : 16:9
Frame rate mode : Constant
Frame rate : 29.970 (30000/1001/189150) FPS
Color space : YUV
Chroma subsampling : 4:2:0
Bit depth : 8 bits
Scan type : Progressive
Bits/(Pixel*Frame) : 0.187
Stream size : 8.89 GiB (95%)
Language : English
Default : Yes
Forced : No
Color range : Limited
Color primaries : BT.709
Transfer characteristics : BT.709
Matrix coefficients : BT.709

Audio
ID : 2
Format : E-AC-3
Format/Info : Enhanced AC-3
Commercial name : Dolby Digital Plus
Codec ID : A_EAC3
Duration : 1 h 49 min
Bit rate mode : Constant
Bit rate : 640 kb/s
Channel(s) : 6 channels
Channel layout : L R C LFE Ls Rs
Sampling rate : 48.0 kHz
Frame rate : 31.250 FPS (1536 SPF)
Compression mode : Lossy
Stream size : 503 MiB (5%)
Language : English
Service kind : Complete Main
Default : Yes
Forced : No

Text
ID : 3
Format : UTF-8
Codec ID : S_TEXT/UTF8
Codec ID/Info : UTF-8 Plain Text
Duration : 1 h 49 min
Bit rate : 57 b/s
Count of elements : 1615
Stream size : 45.7 KiB (0%)
Language : English
Default : Yes
Forced : No





1 个附件 售价 大小 下载 时间

Camp.2003.1080p.AMZN.WEBRip.DDP5.1.x264-Candial.torrent 0 金币 47.54K 343 次 9天前

#1楼
发帖时间:2021-06-11 23:22:50   |   回复数:0
游客组